Дорогой Фрэнки / Dear Frankie (Шона Ауэрбак / Shona Auerbach) [2003, Великобритания, драма, мелодрама, WEB-DL 1080p] Dub + MVO + Original Eng

Ответить на тему
 
Автор Сообщение

user ®

Стаж: 7 лет 7 месяцев

Сообщений: 20008

Пост Пост: #1 от 11-Мар-2014 23:05

[Цитировать]

Дорогой Фрэнки / Dear Frankie
Страна: Великобритания
Студия: Pathe Pictures
Жанр: драма, мелодрама
Год выпуска: 2003
Продолжительность: 01:44:48
Перевод 1: Профессиональный (дублированный)
Перевод 2: Профессиональный (многоголосый закадровый)
Cубтитры: нет
Оригинальная аудиодорожка: английский
Режиссер: Шона Ауэрбак / Shona Auerbach
В ролях: Эмили Мортимер, Джек МакЭлоун, Джеральд Батлер, Мэри Риггэнс, Шарон Смолл, Софи Мэйн, Кэти Мерфи
Описание: История девятилетнего Фрэнки и его мамы Лиззи, переезжающих с места на место, сколько мальчик себя помнит. Мать хочет защитить своего сына от правды, но необходимость удовлетворить любопытство мальчика заставляет Лиззи придумать правдоподобную историю — она регулярно пишет Фрэнки письма от имени его вымышленного отца, который якобы плавает на корабле по экзотическим странам.
Неожиданно Лиззи узнаёт, что корабль «отца» зайдёт в их порт через несколько дней. Теперь она должна сделать выбор — рассказать Фрэнки правду или решиться на отчаянный план и найти идеального незнакомца на роль идеального отца…

Сэмпл: http://rusfolder.com/40074245
Тип релиза: WEB-DL 1080p
Контейнер: MKV
Чаптеры: есть
Видео: AVC, 1916х1072, 16:9, 4664 Кбит/сек, 23,976 кадров/сек
Аудио 1: русский дублированный, AC-3, 2 канала, 48,0 КГц, 192 Кбит/сек
Аудио 2: русский закадровый, AC-3, 6 каналов, 48,0 КГц, 448 Кбит/сек
Аудио 3: английский, AC-3, 6 каналов, 48,0 КГц, 384 Кбит/сек

MediaInfo

Общее
Уникальный идентификатор : 228665415258448530869599342238415986721 (0xAC075B679387E5988EDBF14891602021)
Полное имя : E:\Скаченное с Интернета\µTorrent новые\Дорогой Фрэнки.mkv
Формат : Matroska
Версия формата : Version 4 / Version 2
Размер файла : 4,25 Гбайт
Продолжительность : 1 ч. 44 м.
Общий поток : 5803 Кбит/сек
Дата кодирования : UTC 2014-03-10 16:59:27
Программа кодирования : mkvmerge v6.8.0 ('Theme for Great Cities') 32bit built on Mar 2 2014 21:27:07
Библиотека кодирования : libebml v1.3.0 + libmatroska v1.4.1
Видео
Идентификатор : 1
Формат : AVC
Формат/Информация : Advanced Video Codec
Профиль формата : High@L4.0
Параметр CABAC формата : Да
Параметр ReFrames формата : 4 кадра
Параметр GOP формата : N=1
Идентификатор кодека : V_MPEG4/ISO/AVC
Продолжительность : 1 ч. 44 м.
Битрейт : 4664 Кбит/сек
Ширина : 1916 пикселей
Высота : 1072 пикселя
Соотношение сторон : 16:9
Частота кадров : 23,976 кадра/сек
Цветовое пространство : YUV
Субдискретизация насыщенности : 4:2:0
Битовая глубина : 8 бит
Тип развёртки : Прогрессивная
Бит/(Пиксели*Кадры) : 0.095
Размер потока : 3,41 Гбайт (80%)
Язык : English
Default : Да
Forced : Нет
Основные цвета : BT.709-5, BT.1361, IEC 61966-2-4, SMPTE RP177
Характеристики трансфера : BT.709-5, BT.1361
Коэффициенты матрицы : BT.709-5, BT.1361, IEC 61966-2-4 709, SMPTE RP177
Аудио #1
Идентификатор : 2
Формат : AC-3
Формат/Информация : Audio Coding 3
Расширение режима : CM (complete main)
Параметр Endianness формата : Big
Идентификатор кодека : A_AC3
Продолжительность : 1 ч. 44 м.
Вид битрейта : Постоянный
Битрейт : 192 Кбит/сек
Каналы : 2 канала
Расположение каналов : Front: L R
Частота : 48,0 КГц
Битовая глубина : 16 бит
Метод сжатия : С потерями
Размер потока : 144 Мбайт (3%)
Заголовок : Дублированный
Язык : Russian
Default : Да
Forced : Нет
Аудио #2
Идентификатор : 3
Формат : AC-3
Формат/Информация : Audio Coding 3
Расширение режима : CM (complete main)
Параметр Endianness формата : Big
Идентификатор кодека : A_AC3
Продолжительность : 1 ч. 44 м.
Вид битрейта : Постоянный
Битрейт : 448 Кбит/сек
Каналы : 6 каналов
Расположение каналов : Front: L C R, Side: L R, LFE
Частота : 48,0 КГц
Битовая глубина : 16 бит
Метод сжатия : С потерями
Размер потока : 336 Мбайт (8%)
Заголовок : Закадровый
Язык : Russian
Default : Нет
Forced : Нет
Аудио #3
Идентификатор : 4
Формат : AC-3
Формат/Информация : Audio Coding 3
Расширение режима : CM (complete main)
Параметр Endianness формата : Big
Идентификатор кодека : A_AC3
Продолжительность : 1 ч. 44 м.
Вид битрейта : Постоянный
Битрейт : 384 Кбит/сек
Каналы : 6 каналов
Расположение каналов : Front: L C R, Side: L R, LFE
Частота : 48,0 КГц
Битовая глубина : 16 бит
Метод сжатия : С потерями
Размер потока : 288 Мбайт (7%)
Язык : English
Default : Нет
Forced : Нет
Меню
00:00:00.000 : en:Moving Again
00:06:29.000 : en:Stamps & Secrets
00:14:49.000 : en:New Friends
00:19:26.000 : en:The Bet
00:25:21.000 : en:Mommy's Wardrobe
00:31:22.000 : en:Looking For A Man
00:38:04.000 : en:The Stranger
00:47:10.000 : en:Winning The Bet
00:53:05.000 : en:A Day With Dad
01:04:28.000 : en:Flesh & Blood
01:09:51.000 : en:One More Day
01:20:15.000 : en:We're All Connected
01:29:56.000 : en:Obituary
01:38:19.000 : en:Last Letter
01:42:08.000 : en:End Credits

Скриншоты

Скачать

Скачать торрент!

Как скачивать? · Что такое торрент? · Рейтинг и ограничения

Сайт не распространяет и не хранит электронные версии произведений, а лишь предоставляет доступ к создаваемому пользователями каталогу ссылок на торрент-файлы, которые содержат только списки хеш-сумм

[Профиль] [ЛС]
Показать сообщения:    
Ответить на тему

Текущее время: Сегодня 07:49

Часовой пояс: GMT + 4



Вы не можете начинать темы
Вы не можете отвечать на сообщения
Вы не можете редактировать свои сообщения
Вы не можете удалять свои сообщения
Вы не можете голосовать в опросах
Вы не можете прикреплять файлы к сообщениям
Вы не можете скачивать файлы