Рыцари королевства Крутизны / Knights of Badassdom (Джо Линч / Joe Lynch) [2014, США, комедия, фэнтези, ужасы, WEB-DL 720p] MVO + Original (Eng) + Sub (rus, eng)

Ответить на тему
 
Автор Сообщение

user ®

Стаж: 7 лет 7 месяцев

Сообщений: 20008

Пост Пост: #1 от 11-Мар-2014 20:00

[Цитировать]

Рыцари королевства Крутизны
Knights of Badassdom
«'Tis about to get medieval up in here» Страна: США
Год выпуска: 2014
Жанр: комедия, фэнтези, ужасы
Продолжительность: 01:25:43
Перевод: Любительский (Многоголосый закадровый) - ViruseProject
русские субтитры: есть-Режиссёр: Джо Линч : Joe Lynch
В главных ролях: Райан Квантен, Стив Зан, Питер Динклэйдж, Саммер Глау, Маргарита Левиева, Том Хоппер, Джимми Симпсон, Дэнни Пуди, Джошуа Малина, У. Эрл Браун-Закадровое озвучание: Марина Видякина, Елена Емельянова, Алекс Викке, Алексей Кизуб, Дмитрий Кравченко, Дмитрий Иванов, Александр Федоров, Александр Мигунов (shaMan) и Евгений Яковель
Перевод: Татьяна Масаковская (при участии МЕГАПЫХАРЯ)
Редакция перевода, монтаж: Виталий Емельянов-Описание: Большая группа увлеченных костюмированных ролевиков, разодетая в рыцарей, эльфов и других персонажей, отключает свои мобильники и направляется в леса Нью-Джерси в Сообщество рыцарей Badassdom, где они собираются воспроизвести сценарий подземелий и драконов (dungeons and dragons) прямиком из мифического средневековья.- -Качество: WEB-DL 720p
Формат: MKV
Видео кодек: AVC
Аудио кодек: АС3
Видео: 1280x532, 23.976 fps, ~3 932 kbps avg, 0.241 bit/pixel
Аудио #1: [RUS] 48 kHz, AC3 Dolby Digital, 3/2 (L,C,R,l,r) + LFE ch, ~384 kbps
Аудио #2: [ENG] 48 kHz, AC3 Dolby Digital, 3/2 (L,C,R,l,r) + LFE ch, ~384 kbps
субтитры: русские Kintar & Co, английские
навигация по главам: 13 глав

скриншоты


MediaInfo

Общее
Уникальный идентификатор : 173949532053947019714083460057540278270 (0x82DD76151A006B04A1E7FD90E86737FE)
Полное имя : D:\Фильмы\Рыцари Крутости\Knights of Badassdom.2014.WEB-DL 720p.mkv
Формат : Matroska
Версия формата : Version 4 / Version 2
Размер файла : 2,87 Гбайт
Продолжительность : 1 ч. 25 м.
Общий поток : 4788 Кбит/сек
Дата кодирования : UTC 2014-03-11 11:52:06
Программа кодирования : mkvmerge v6.8.0 ('Theme for Great Cities') 32bit built on Mar 2 2014 21:27:07
Библиотека кодирования : libebml v1.3.0 + libmatroska v1.4.1
Видео
Идентификатор : 1
Формат : AVC
Формат/Информация : Advanced Video Codec
Профиль формата : Main@L3.1
Параметр CABAC формата : Нет
Параметр ReFrames формата : 2 кадра
Идентификатор кодека : V_MPEG4/ISO/AVC
Продолжительность : 1 ч. 25 м.
Битрейт : 3924 Кбит/сек
Ширина : 1280 пикселей
Высота : 532 пикселя
Соотношение сторон : 2,40:1
Режим частоты кадров : Постоянный
Частота кадров : 23,976 кадра/сек
Цветовое пространство : YUV
Субдискретизация насыщенности : 4:2:0
Битовая глубина : 8 бит
Тип развёртки : Прогрессивная
Бит/(Пиксели*Кадры) : 0.240
Размер потока : 2,35 Гбайт (82%)
Язык : English
Default : Да
Forced : Нет
Основные цвета : BT.709
Характеристики трансфера : BT.709
Коэффициенты матрицы : BT.709
Аудио #1
Идентификатор : 2
Формат : AC-3
Формат/Информация : Audio Coding 3
Расширение режима : CM (complete main)
Параметр Endianness формата : Big
Идентификатор кодека : A_AC3
Продолжительность : 1 ч. 25 м.
Вид битрейта : Постоянный
Битрейт : 384 Кбит/сек
Каналы : 6 каналов
Расположение каналов : Front: L C R, Side: L R, LFE
Частота : 48,0 КГц
Битовая глубина : 16 бит
Метод сжатия : С потерями
Размер потока : 235 Мбайт (8%)
Заголовок : MVO [ViruseProject]
Язык : Russian
Default : Да
Forced : Нет
Аудио #2
Идентификатор : 3
Формат : AC-3
Формат/Информация : Audio Coding 3
Расширение режима : CM (complete main)
Параметр Endianness формата : Big
Идентификатор кодека : A_AC3
Продолжительность : 1 ч. 25 м.
Вид битрейта : Постоянный
Битрейт : 384 Кбит/сек
Каналы : 6 каналов
Расположение каналов : Front: L C R, Side: L R, LFE
Частота : 48,0 КГц
Битовая глубина : 16 бит
Метод сжатия : С потерями
Размер потока : 235 Мбайт (8%)
Заголовок : ENG
Язык : English
Default : Нет
Forced : Нет
Текст #1
Идентификатор : 4
Формат : UTF-8
Идентификатор кодека : S_TEXT/UTF8
Идентификатор кодека/Информация : UTF-8 Plain Text
Заголовок : Rus Sub [Kintar & Co]
Язык : Russian
Default : Нет
Forced : Нет
Текст #2
Идентификатор : 5
Формат : UTF-8
Идентификатор кодека : S_TEXT/UTF8
Идентификатор кодека/Информация : UTF-8 Plain Text
Заголовок : Eng Sub
Язык : English
Default : Нет
Forced : Нет
Меню
00:00:00.000 : en:Chapter 1
00:07:14.000 : en:Chapter 2
00:13:10.000 : en:Chapter 3
00:20:48.000 : en:Chapter 4
00:29:49.000 : en:Chapter 5
00:35:47.000 : en:Chapter 6
00:42:52.000 : en:Chapter 7
00:48:40.000 : en:Chapter 8
00:55:31.000 : en:Chapter 9
01:03:04.000 : en:Chapter 10
01:09:54.000 : en:Chapter 11
01:16:44.000 : en:Chapter 12
01:20:59.000 : en:Chapter 13
Скачать

Скачать торрент!

Как скачивать? · Что такое торрент? · Рейтинг и ограничения

Сайт не распространяет и не хранит электронные версии произведений, а лишь предоставляет доступ к создаваемому пользователями каталогу ссылок на торрент-файлы, которые содержат только списки хеш-сумм

[Профиль] [ЛС]
Показать сообщения:    
Ответить на тему

Текущее время: Сегодня 11:57

Часовой пояс: GMT + 4



Вы не можете начинать темы
Вы не можете отвечать на сообщения
Вы не можете редактировать свои сообщения
Вы не можете удалять свои сообщения
Вы не можете голосовать в опросах
Вы не можете прикреплять файлы к сообщениям
Вы не можете скачивать файлы