Рыцари королевства Крутизны / Knights of Badassdom (Джо Линч / Joe Lynch ) [2014, США, фэнтези, ужасы, комедия, WEB-DLRip] MVO (ViruseProject)

Ответить на тему
 
Автор Сообщение

user ®

Стаж: 7 лет 7 месяцев

Сообщений: 20008

Пост Пост: #1 от 11-Мар-2014 14:55

[Цитировать]

Рыцари королевства Крутизны / Knights of Badassdom
Страна: США
Жанр: фэнтези, ужасы, комедия
Год выпуска: 2014
Продолжительность: 01:25:43
Перевод: Любительский (многоголосый закадровый) (ViruseProject)
Cубтитры: нет
Оригинальная аудиодорожка: нет
Режиссер: Джо Линч / Joe Lynch
В ролях: Райан Квантен ("Настоящая кровь"), Стив Зан ("Национальная безопасность" и т.п.), Питер Динклэйдж ("Игра Престолов" и т.п.), Саммер Глау ("Светлячок", "Терминатор: Битва за будущее"), Маргарита Левиева, Том Хоппер, Джимми Симпсон, Дэнни Пуди, Джошуа Малина, У. Эрл Браун и др.
Описание: Джо кидает девушка, в следствии чего его друзья повернутые на ролевых играх: Эрик и Ханг предлагают ему пыхнуть кальянчика и расслабиться. В итоге Джо просыпается в грузовике разодетый в рыцаря в эпицентре ролевых игр. Дружбаны уговаривают его провети этот ролевой день с ними, чтобы Джо забыл свою девушку. Далее Эрик сам того не зная вызывает демона при помощи книги купленной в интернете и теперь им нужно победить этого демона, спасти целое поле народа и самим не погибнуть...
ВНИМАНИЕ!!! НЕМНОГО НЕНОРМАТИВНОЙ ЛЕКСИКИ И ПАЧКА КРОВИ!!!
Лицам не достигшим 18 лет и тем, кто не переваривает нецензурные выражение и насилие - категорически не рекомендуется смотреть


Релиз: совместно с Студией звукозаписи "Квазар Музыка"
смотреть ТРЕЙЛЕР ФИЛЬМА на русском на youtube
смотреть СЕМПЛ озвучки на youtube
скачать СЕМПЛ с multi-up
Качество видео: WEB-DLRip
Формат видео: AVI
Видео: 720x304 (2.37:1), 23.976 fps, XviD build 50 ~2050 kbps avg, 0.39 bit/pixel
Аудио: 48 kHz, AC3 Dolby Digital, 3/2 (L,C,R,l,r) + LFE ch, ~384 kbps

Над фильмом трудились

Закадровое озвучание: Марина Видякина, Елена Емельянова, Алекс Викке, Алексей Кизуб, Дмитрий Кравченко, Дмитрий Иванов, Александр Федоров, Александр Мигунов (shaMan) и Евгений Яковель
Перевод: Татьяна Масаковская (при участии МЕГАПЫХАРЯ)
Редакция перевода, монтаж, сведение звука, подготовка видео: Виталий Емельянов

MediaInfo

D:\ОЗВУЧКА\ФИЛЬМЫ\РЫЦАРИ КОРОЛЕВСТВА КРУТИЗНЫ\Knights.Of.Badassdom.2014.WEB-DL.ViruseProject.avi
General
Complete name : D:\ОЗВУЧКА\ФИЛЬМЫ\РЫЦАРИ КОРОЛЕВСТВА КРУТИЗНЫ\Knights.Of.Badassdom.2014.WEB-DL.ViruseProject.avi
Format : AVI
Format/Info : Audio Video Interleave
File size : 1.46 GiB
Duration : 1h 25mn
Overall bit rate : 2 444 Kbps
Writing application : VirtualDubMod 1.5.10.2 (build 2540/release)
Writing library : VirtualDubMod build 2540/release
Video #0
ID : 0
Format : MPEG-4 Visual
Format profile : Advanced Simple@L5
Format settings, BVOP : 1
Format settings, QPel : No
Format settings, GMC : No warppoints
Format settings, Matrix : Default (MPEG)
Codec ID : XVID
Codec ID/Hint : XviD
Duration : 1h 25mn
Bit rate : 2 051 Kbps
Width : 720 pixels
Height : 304 pixels
Display aspect ratio : 2.35:1
Frame rate : 23.976 fps
Color space : YUV
Chroma subsampling : 4:2:0
Bit depth : 8 bits
Scan type : Progressive
Compression mode : Lossy
Bits/(Pixel*Frame) : 0.391
Stream size : 1.23 GiB (84%)
Writing library : XviD 1.2.1 (UTC 2008-12-04)
Audio #1
ID : 1
Format : AC-3
Format/Info : Audio Coding 3
Mode extension : CM (complete main)
Format settings, Endianness : Big
Codec ID : 2000
Duration : 1h 25mn
Bit rate mode : Constant
Bit rate : 384 Kbps
Channel count : 6 channels
Channel positions : Front: L C R, Side: L R, LFE
Sampling rate : 48.0 KHz
Bit depth : 16 bits
Compression mode : Lossy
Stream size : 235 MiB (16%)
Alignment : Split accross interleaves
Interleave, duration : 42 ms (1.00 video frame)
Interleave, preload duration : 500 ms

Скриншоты

Скачать

Скачать торрент!

Как скачивать? · Что такое торрент? · Рейтинг и ограничения

Сайт не распространяет и не хранит электронные версии произведений, а лишь предоставляет доступ к создаваемому пользователями каталогу ссылок на торрент-файлы, которые содержат только списки хеш-сумм

[Профиль] [ЛС]
Показать сообщения:    
Ответить на тему

Текущее время: Сегодня 05:59

Часовой пояс: GMT + 4



Вы не можете начинать темы
Вы не можете отвечать на сообщения
Вы не можете редактировать свои сообщения
Вы не можете удалять свои сообщения
Вы не можете голосовать в опросах
Вы не можете прикреплять файлы к сообщениям
Вы не можете скачивать файлы