Афина: богиня войны / Athena: Goddess Of War (Ким Ён Чжун / Kim Young Joon, Ким Тхе Хун / Kim Tae Hoon, Хван Чон Хён / Hwang Jung Hyun) [2011, Южная Корея, боевик, HDRip] MVO (STEPonee)

Ответить на тему
 
Автор Сообщение

user ®

Стаж: 11 лет

Сообщений: 15151

Пост Пост: #1 от 11-Мар-2014 00:10

[Цитировать]

Афина: богиня войны / Athena: Goddess Of War / 아테나: 전쟁의 여신 / Atena: Jeon-jaen-gui yeo-sin
Год выпуска: 2011
Страна: Южная Корея
Жанр: боевик
Продолжительность: 01:58:06
Перевод: любительский (многоголосый закадровый) [студия STEPonee]

Оригинальная дорожка: нет
Русские субтитры: нет
Режиссёры: Ким Ён Чжун, Ким Тхе Хун, Хван Чон Хён (Kim Young Joon, Kim Tae Hoon, Hwang Jung Hyun)
В ролях:
  • Чон У Сон (Jung Woo Sung) - Ли Чжун У
  • Чха Сын Вон (Cha Seung Won) - Сон Хёк
  • Су Э (Soo Ae) - Юн Хэ Ин
  • Ли Чжи А (Lee Ji Ah) - Хан Чже Хи
  • Ю Дон Гын (Yoo Dong Geun) - Квон Ён Кван, директор НТС
  • Ким Ён Э (Kim Yeong Ae) - Чхве Чжин Хи, секретарь президента Кореи
  • Ким Мин Чжон (Kim Min Jong) - Ким Ги Су
Описание
В недалёком будущем в Южной Корее изобретена новая технология получения ядерной энергии. В обстановке строжайшей секретности власти страны финансируют работы по созданию ядерного реактора. Со своей стороны тайная международная организация "АФина", извлекающая огромные прибыли на мировом энергетическом рынке, стремится помешать этому и заполучить новую технологию.((с) Юрий Балякин)
Сэмпл
Роли озвучивали:
  • Георгий Ерунков
  • Юрий Балякин
  • Елена Рузаева
  • Ирина Пометнёва
Перевод на русский язык: Лилит Егиазарян
Редакция: Ольга Белкова и Юрий Балякин

Скриншот c названием фильма

Качество: HDRip (MKV BDRip-AVC 720p)
Формат: AVI
Видео: XviD, 720x400 (16:9), 23,976 к/с, 2191 кбит/с
Аудио: AC3 5.1, 48 кГц, 448 кбит/с

Отчёт MediaInfo

General
Complete name : E:\STEPonee\_Work\Афина - богиня войны. Athena - Goddess of War\final\Athena.Goddess.Of.War.2011.HDRip.720p.AC3.MVO.STEPonee ..avi
Format : AVI
Format/Info : Audio Video Interleave
Format profile : OpenDML
File size : 2.19 GiB
Duration : 1h 58mn
Overall bit rate : 2 651 Kbps
Writing application : VirtualDubMod 1.5.10.2 (build 2542/release)
Writing library : VirtualDubMod build 2542/release
Video
ID : 0
Format : MPEG-4 Visual
Format profile : Advanced Simple@L5
Format settings, BVOP : 1
Format settings, QPel : No
Format settings, GMC : No warppoints
Format settings, Matrix : Default (MPEG)
Codec ID : XVID
Codec ID/Hint : XviD
Duration : 1h 58mn
Bit rate : 2 191 Kbps
Width : 720 pixels
Height : 400 pixels
Display aspect ratio : 16:9
Frame rate : 23.976 fps
Color space : YUV
Chroma subsampling : 4:2:0
Bit depth : 8 bits
Scan type : Progressive
Compression mode : Lossy
Bits/(Pixel*Frame) : 0.317
Stream size : 1.81 GiB (83%)
Writing library : XviD 1.2.1 (UTC 2008-12-04)
Audio
ID : 1
Format : AC-3
Format/Info : Audio Coding 3
Mode extension : CM (complete main)
Format settings, Endianness : Big
Codec ID : 2000
Duration : 1h 58mn
Bit rate mode : Constant
Bit rate : 448 Kbps
Channel(s) : 6 channels
Channel positions : Front: L C R, Side: L R, LFE
Sampling rate : 48.0 KHz
Bit depth : 16 bits
Compression mode : Lossy
Stream size : 378 MiB (17%)
Alignment : Split accross interleaves
Interleave, duration : 42 ms (1.00 video frame)
Interleave, preload duration : 500 ms

Скриншоты


Подготовка релиза:
  • Юрий Балякин - обработка звука, монтаж
  • Екатерина Проц - постер

Все раздачи студии

[url=http://***/forum/tracker.php?nm=steponee]Все разделы[/url]
[url=http://***/forum/tracker.php?f=915&nm=steponee]Корейские сериалы[/url]
[url=http://***/forum/tracker.php?f=1939&nm=steponee]Японские сериалы[/url]
[url=http://***/forum/tracker.php?f=2412&nm=steponee]Прочие азиатские сериалы[/url]
[url=http://***/forum/tracker.php?f=934&nm=steponee]Азиатские фильмы[/url]
Скачать

Скачать торрент! Афина: богиня войны / Athena: Goddess Of War (Ким Ён Чжун / Kim Young Joon, Ким Тхе Хун / Kim Tae Hoon, Хван Чон Хён / Hwang Jung Hyun) [2011, Южная Корея, боевик, HDRip] MVO (STEPonee)

Как скачивать? · Что такое торрент? · Рейтинг и ограничения

Сайт не распространяет и не хранит электронные версии произведений, а лишь предоставляет доступ к создаваемому пользователями каталогу ссылок на торрент-файлы, которые содержат только списки хеш-сумм

[Профиль] [ЛС]
Показать сообщения:    
Ответить на тему

Текущее время: Сегодня 19:45

Часовой пояс: GMT + 4



Вы не можете начинать темы
Вы не можете отвечать на сообщения
Вы не можете редактировать свои сообщения
Вы не можете удалять свои сообщения
Вы не можете голосовать в опросах
Вы не можете прикреплять файлы к сообщениям
Вы не можете скачивать файлы