Холодным взором / Medium Cool (Хэскелл Уэкслер / Haskell Wexler) [1969, США, драма, BDRip 720p] [Criterion #658] VO (uhtyshk) + Sub Rus, Eng + Original Eng

Ответить на тему
 
Автор Сообщение

user ®

Стаж: 7 лет 7 месяцев

Сообщений: 20008

Пост Пост: #1 от 11-Мар-2014 00:10

[Цитировать]

Холодным взором / Medium Cool- Страна: США
Студия: H & J
Жанр: драма
Год выпуска: 1969
Продолжительность: 01:50:40-Перевод: любительский (одноголосый закадровый) uhtyshk
Cубтитры: русские (Abris, uhtyshk), английские
Оригинальная аудиодорожка: английский-Режиссер: Хэскелл Уэкслер / Haskell Wexler
В ролях: Роберт Форстер, Верна Блум, Питер Бонерз, Марианна Хилл, Харольд Бланкеншип, Чарльз Джиари, Сид МакКой, Кристин Бергсторм, Роберт МакЭндрю и др.-Описание: «Холодным взором» – редкий пример того случая, когда голливудская студия выпустила абсолютно независимый по своему духу фильм, в котором стёрты границы между игровым и документальным кино и смело представлены все противоречия происходящих тогда политических и социальных процессов, которые замалчивались телевидением и пока ещё не были раскрыты в кинематографе.
Американский кинематографист Хаскелл Уэкслер снял неоднозначную картину о человеке с киноаппаратом в эпоху протеста. Сюжет фильма о телевизионном операторе из Чикаго вплетён в канву реальных событий того времени и снят с документальной достоверностью в самой гуще массовых бунтов 1968-го года, жестоко подавляемых полицией. Режиссёр исследует природу насилия и протеста и гипнотическое воздействие, которое оказывает на людей процесс киносъёмки и просмотра кинохроники. Фильм иллюстрирует, как человек испытывает при этом невероятное возбуждение, но в то же время держится на холодной дистанции.-Сэмпл: http://www.sendspace.com/file/ej25wj-Тип релиза: BDRip 720p (EbP)
Контейнер: MKV
Видео: MPEG-4 AVC / 13500 kbps / 1280 x 692 / 23.976 fps / 1.85:1
Аудио 1: Russian / AC3 2.0 / 48 kHz / 384 kbps (Одноголосый закадровый, любительский, uhtyshk)
Аудио 2: English / FLAC 1.0 / 48 kHz / 187 kbps / 24 bit
Аудио 3: English / AC3 1.0 / 48 kHz / 96 kbps (Commentary by Haskell Wexler, Paul Golding, Marianna Hill)
Аудио 4: English / AC3 1.0 / 48 kHz / 96 kbps (Commentary by Paul Cronin)
Формат субтитров: softsub (SRT)
Навигация по главам: есть- -

MediaInfo

Общее
Уникальный идентификатор                 : 191990487758221570595125931815161841220 (0x907005DF77E847A38491E827FF504644)
Полное имя                               : D:\Criterion Collection\Medium Cool.1969.Criterion Collection.BD-Rip.720p-EbP.mkv
Формат                                   : Matroska
Версия формата                           : Version 4 / Version 2
Размер файла                             : 11,1 Гбайт
Продолжительность                        : 1 ч. 50 м.
Режим общего битрейта                    : Переменный
Общий поток                              : 14,4 Мбит/сек
Дата кодирования                         : UTC 2014-03-10 17:38:15
Программа кодирования                    : mkvmerge v6.6.0 ('The Edge Of The In Between') built on Dec  1 2013 17:55:00
Библиотека кодирования                   : libebml v1.3.0 + libmatroska v1.4.1
Видео
Идентификатор                            : 1
Формат                                   : AVC
Формат/Информация                        : Advanced Video Codec
Профиль формата                          : High@L4.1
Параметр CABAC формата                   : Да
Параметр ReFrames формата                : 9 кадров
Идентификатор кодека                     : V_MPEG4/ISO/AVC
Продолжительность                        : 1 ч. 50 м.
Ширина                                   : 1280 пикселей
Высота                                   : 692 пикселя
Соотношение сторон                       : 1,85:1
Режим частоты кадров                     : Постоянный
Частота кадров                           : 23,976 кадра/сек
Цветовое пространство                    : YUV
Субдискретизация насыщенности            : 4:2:0
Битовая глубина                          : 8 бит
Тип развёртки                            : Прогрессивная
Заголовок                                : Medium Cool
Библиотека кодирования                   : x264 core 133 r2334+704+50 a7549b7 tMod [8-bit@all X86_64]
Настройки программы                      : cabac=1 / ref=9 / deblock=1:-3:-3 / analyse=0x3:0x133 / me=tesa / subme=11 / psy=1 / fade_compensate=0.00 / psy_rd=1.14:0.00 / mixed_ref=1 / me_range=48 / chroma_me=1 / trellis=2 / 8x8dct=1 / cqm=0 / deadzone=21,11 / fast_pskip=0 / chroma_qp_offset=-2 / threads=18 / lookahead_threads=4 / sliced_threads=0 / nr=0 / decimate=0 / interlaced=0 / bluray_compat=0 / constrained_intra=0 / fgo=0 / bframes=10 / b_pyramid=2 / b_adapt=2 / b_bias=0 / direct=3 / weightb=1 / open_gop=0 / weightp=2 / keyint=250 / keyint_min=23 / scenecut=40 / intra_refresh=0 / rc=crf / mbtree=0 / crf=18.8000 / qcomp=0.76 / qpmin=0 / qpmax=69 / qpstep=4 / ip_ratio=1.30 / pb_ratio=1.20 / aq=3:0.60 / aq-sensitivity=10.00 / aq-factor=1.00:1.00:1.00 / aq2=0 / aq3=0
Язык                                     : English
Default                                  : Да
Forced                                   : Нет
Коэффициенты матрицы                     : BT.709
Аудио #1
Идентификатор                            : 2
Формат                                   : AC-3
Формат/Информация                        : Audio Coding 3
Расширение режима                        : CM (complete main)
Параметр Endianness формата              : Big
Идентификатор кодека                     : A_AC3
Продолжительность                        : 1 ч. 50 м.
Вид битрейта                             : Постоянный
Битрейт                                  : 384 Кбит/сек
Каналы                                   : 2 канала
Расположение каналов                     : Front: L R
Частота                                  : 48,0 КГц
Битовая глубина                          : 16 бит
Метод сжатия                             : С потерями
Размер потока                            : 304 Мбайт (3%)
Заголовок                                : VO, uhtyshk [AC3 2.0 @ 384 kbps]
Язык                                     : Russian
Default                                  : Да
Forced                                   : Нет
Аудио #2
Идентификатор                            : 3
Формат                                   : FLAC
Формат/Информация                        : Free Lossless Audio Codec
Идентификатор кодека                     : A_FLAC
Продолжительность                        : 1 ч. 50 м.
Вид битрейта                             : Переменный
Каналы                                   : 1 канал
Частота                                  : 48,0 КГц
Битовая глубина                          : 24 бит
Заголовок                                : [FLAC 1.0 @ 187 kbps]
Библиотека кодирования                   : libFLAC 1.2.1 (UTC 2007-09-17)
Язык                                     : English
Default                                  : Нет
Forced                                   : Нет
Аудио #3
Идентификатор                            : 4
Формат                                   : AC-3
Формат/Информация                        : Audio Coding 3
Расширение режима                        : CM (complete main)
Параметр Endianness формата              : Big
Идентификатор кодека                     : A_AC3
Продолжительность                        : 1 ч. 50 м.
Вид битрейта                             : Постоянный
Битрейт                                  : 96,0 Кбит/сек
Каналы                                   : 1 канал
Расположение каналов                     : Front: C
Частота                                  : 48,0 КГц
Битовая глубина                          : 16 бит
Метод сжатия                             : С потерями
Размер потока                            : 76,0 Мбайт (1%)
Заголовок                                : Commentary by Haskell Wexler, Paul Golding, Marianna Hill [AC3 1.0 @ 96 kbps]
Язык                                     : English
Default                                  : Нет
Forced                                   : Нет
Аудио #4
Идентификатор                            : 5
Формат                                   : AC-3
Формат/Информация                        : Audio Coding 3
Расширение режима                        : CM (complete main)
Параметр Endianness формата              : Big
Идентификатор кодека                     : A_AC3
Продолжительность                        : 1 ч. 50 м.
Вид битрейта                             : Постоянный
Битрейт                                  : 96,0 Кбит/сек
Каналы                                   : 1 канал
Расположение каналов                     : Front: C
Частота                                  : 48,0 КГц
Битовая глубина                          : 16 бит
Метод сжатия                             : С потерями
Размер потока                            : 76,0 Мбайт (1%)
Заголовок                                : Commentary by Paul Cronin [AC3 1.0 @ 96 kbps]
Язык                                     : English
Default                                  : Нет
Forced                                   : Нет
Текст #1
Идентификатор                            : 6
Формат                                   : UTF-8
Идентификатор кодека                     : S_TEXT/UTF8
Идентификатор кодека/Информация          : UTF-8 Plain Text
Заголовок                                : Abris
Язык                                     : Russian
Default                                  : Нет
Forced                                   : Нет
Текст #2
Идентификатор                            : 7
Формат                                   : UTF-8
Идентификатор кодека                     : S_TEXT/UTF8
Идентификатор кодека/Информация          : UTF-8 Plain Text
Заголовок                                : uhtyshk
Язык                                     : Russian
Default                                  : Нет
Forced                                   : Нет
Текст #3
Идентификатор                            : 8
Формат                                   : UTF-8
Идентификатор кодека                     : S_TEXT/UTF8
Идентификатор кодека/Информация          : UTF-8 Plain Text
Язык                                     : English
Default                                  : Нет
Forced                                   : Нет
Меню
00:00:00.000                             : en:00:00:00.000
00:04:25.974                             : en:00:04:25.974
00:07:44.547                             : en:00:07:44.547
00:12:26.537                             : en:00:12:26.537
00:18:58.596                             : en:00:18:58.596
00:23:22.651                             : en:00:23:22.651
00:28:45.641                             : en:00:28:45.641
00:31:30.555                             : en:00:31:30.555
00:37:50.602                             : en:00:37:50.602
00:42:23.207                             : en:00:42:23.207
00:45:29.560                             : en:00:45:29.560
00:54:56.126                             : en:00:54:56.126
00:56:45.736                             : en:00:56:45.736
00:59:55.801                             : en:00:59:55.801
01:08:37.697                             : en:01:08:37.697
01:13:40.916                             : en:01:13:40.916
01:20:14.018                             : en:01:20:14.018
01:22:53.802                             : en:01:22:53.802
01:25:49.978                             : en:01:25:49.978
01:32:03.852                             : en:01:32:03.852
01:35:58.503                             : en:01:35:58.503
01:39:42.977                             : en:01:39:42.977
01:44:12.163                             : en:01:44:12.163

Скриншоты


Доп. информация

* Русская дорожка и субтитры №2 взяты из раздачи [url=http://***/forum/viewtopic.php?t=3929063]nnmmat[/url].
* Дорожки с комментариями - из раздачи [url=http://***/forum/viewtopic.php?t=4575631]andrmaj132[/url].
* За субтитры от Abris большое спасибо [url=http://***/forum/profile.php?mode=viewprofile&u=15961106]alex-kin[/url].
-
Скачать

Скачать торрент!

Как скачивать? · Что такое торрент? · Рейтинг и ограничения

Сайт не распространяет и не хранит электронные версии произведений, а лишь предоставляет доступ к создаваемому пользователями каталогу ссылок на торрент-файлы, которые содержат только списки хеш-сумм

[Профиль] [ЛС]
Показать сообщения:    
Ответить на тему

Текущее время: Сегодня 00:41

Часовой пояс: GMT + 4



Вы не можете начинать темы
Вы не можете отвечать на сообщения
Вы не можете редактировать свои сообщения
Вы не можете удалять свои сообщения
Вы не можете голосовать в опросах
Вы не можете прикреплять файлы к сообщениям
Вы не можете скачивать файлы