Матрица: Революция / The Matrix Revolutions (Энди Вачовски / Andy Wachowski, Ларри Вачовски / Larry Wachowski) [2003, США, Фантастика, Боевик, BDRip 1080p] Dub + Sub Rus, Eng + Original Eng

Ответить на тему
 
Автор Сообщение

user ®

Стаж: 7 лет 7 месяцев

Сообщений: 20008

Пост Пост: #1 от 11-Мар-2014 00:10

[Цитировать]

Матрица: Революция / The Matrix Revolutions- -Страна: США
Студия: Warner Bros. Pictures
Жанр: Фантастика, Боевик
Год выпуска: 2003
Продолжительность: 02:09:16
Перевод: Профессиональный (дублированный)
Оригинальная дорожка: английский
Cубтитры: русские, английские-Режиссеры: Энди Вачовски / Andy Wachowski, Ларри Вачовски / Larry Wachowski-В ролях:
Киану Ривз / Keanu Reeves, Кэрри-Энн Мосс / Carrie-Anne Moss, Хьюго Уивинг / Hugo Weaving, Лоуренс Фишберн / Laurence Fishburne, Моника Белуччи / Monica Bellucci, Гельмут Бакайтис / Helmut Bakaitis-Описание:-Армия машин продолжает бурить тоннели к Зиону. Уже через несколько часов они наводнят население последнего города Земли и положат конец существованию человеческого вида. Тем временем Нео застрял меж Матрицей и реальным миром, на вокзале, принадлежащем коварному Меровингину. Тринити и Морфеус предпринимают успешную попытку его освобождения и теперь всем необходимо быстро сделать правильный выбор следующего действия. В поисках ответа на свои вопросы Нео посещает прорицательницу Пифию, но так и не может найти выход. Катастрофа становится неизбежной. Несмотря на мощные оборонные системы Зиона и геройский настрой всего населения, гибель последнего оплота человечества становится неизбежной и лишь только Избранный может найти способ остановить безжалостное истребление человеческой расы.-Тип релиза: BDRip 1080p
Контейнер: MKV
Сэмпл: Яндекс.Диск
Видео: 1920x798, 23.976 fps, x264 core 138 (r2358 9e941d1) 8 165 Kbps avg, 0.222 bit/pixel
Аудио:
Аудио 1: AC3, 48 kHz, 16-bit, 6 channels, 640 Kbps, Русский
Аудио 2: AC3, 48 kHz, 16-bit, 6 channels, 640 Kbps, Английский
Субтитры:
Русские, SRT
Английские, SRT
-

MediaInfo

Код:
General
Unique ID : 175320867529166978475829163531435135245 (0x83E5922436088F92AE45CDD35BB2510D)
Complete name : D:\Matrix.Revolutions.2003.BDRip-AVC.1080p.mkv
Format : Matroska
Format version : Version 4 / Version 2
File size : 8.53 GiB
Duration : 2h 9mn
Overall bit rate : 9 446 Kbps
Movie name : The Matrix Revolutions
Encoded date : UTC 2014-03-10 07:49:47
Writing application : mkvmerge v6.7.0 ('Back to the Ground') 32bit built on Jan 8 2014 15:03:17
Writing library : libebml v1.3.0 + libmatroska v1.4.1
TITLE : The Matrix Revolutions
DESCRIPTION : Encoded by Litoy
Video
ID : 1
Format : AVC
Format/Info : Advanced Video Codec
Format profile : High@L4.1
Format settings, CABAC : Yes
Format settings, ReFrames : 5 frames
Codec ID : V_MPEG4/ISO/AVC
Duration : 2h 9mn
Bit rate : 8 165 Kbps
Width : 1 920 pixels
Height : 798 pixels
Display aspect ratio : 2.40:1
Frame rate mode : Constant
Frame rate : 23.976 fps
Color space : YUV
Chroma subsampling : 4:2:0
Bit depth : 8 bits
Scan type : Progressive
Bits/(Pixel*Frame) : 0.222
Stream size : 7.20 GiB (84%)
Title : (x264: 1920x798 23.976fps ~8164Kbps)
Writing library : x264 core 138 r2358 9e941d1
Encoding settings : cabac=1 / ref=5 / deblock=1:-1:-1 / analyse=0x3:0x133 / me=umh / subme=10 / psy=1 / psy_rd=1.00:0.15 / mixed_ref=1 / me_range=24 / chroma_me=1 / trellis=2 / 8x8dct=1 / cqm=0 / deadzone=21,11 / fast_pskip=1 / chroma_qp_offset=-3 / threads=12 / lookahead_threads=2 / sliced_threads=0 / nr=0 / decimate=1 / interlaced=0 / bluray_compat=0 / constrained_intra=0 / bframes=8 / b_pyramid=2 / b_adapt=2 / b_bias=0 / direct=3 / weightb=1 / open_gop=0 / weightp=2 / keyint=240 / keyint_min=23 / scenecut=40 / intra_refresh=0 / rc_lookahead=60 / rc=2pass / mbtree=1 / bitrate=8165 / ratetol=1.0 / qcomp=0.60 / qpmin=0 / qpmax=69 / qpstep=4 / cplxblur=20.0 / qblur=0.5 / vbv_maxrate=62500 / vbv_bufsize=78125 / nal_hrd=none / ip_ratio=1.40 / aq=1:1.00
Language : English
Default : Yes
Forced : No
Audio #1
ID : 2
Format : AC-3
Format/Info : Audio Coding 3
Mode extension : CM (complete main)
Format settings, Endianness : Big
Codec ID : A_AC3
Duration : 2h 9mn
Bit rate mode : Constant
Bit rate : 640 Kbps
Channel(s) : 6 channels
Channel positions : Front: L C R, Side: L R, LFE
Sampling rate : 48.0 KHz
Bit depth : 16 bits
Compression mode : Lossy
Delay relative to video : 3ms
Stream size : 592 MiB (7%)
Title : Russian AC3 5.1 48 KHz 16 bits 640Kbps
Language : Russian
Default : Yes
Forced : No
Audio #2
ID : 3
Format : AC-3
Format/Info : Audio Coding 3
Mode extension : CM (complete main)
Format settings, Endianness : Big
Codec ID : A_AC3
Duration : 2h 9mn
Bit rate mode : Constant
Bit rate : 640 Kbps
Channel(s) : 6 channels
Channel positions : Front: L C R, Side: L R, LFE
Sampling rate : 48.0 KHz
Bit depth : 16 bits
Compression mode : Lossy
Delay relative to video : 3ms
Stream size : 592 MiB (7%)
Title : English AC3 5.1 48 KHz 16 bits 640Kbps
Language : English
Default : No
Forced : No
Text #1
ID : 4
Format : UTF-8
Codec ID : S_TEXT/UTF8
Codec ID/Info : UTF-8 Plain Text
Title : Russian (SRT)
Language : Russian
Default : No
Forced : No
Text #2
ID : 5
Format : UTF-8
Codec ID : S_TEXT/UTF8
Codec ID/Info : UTF-8 Plain Text
Title : English (SRT)
Language : English
Default : No
Forced : No
Menu
00:00:00.000 : en:20 Hours to Go
00:03:55.401 : en:Trapped
00:07:33.119 : en:The Connection Matters
00:10:19.952 : en:Down Here I'm God
00:14:44.383 : en:Coat-Check Chaos
00:17:58.744 : en:Interesting Deal
00:23:33.245 : en:The End Is Coming
00:30:06.304 : en:We Meet at Last
00:35:35.633 : en:The Logos Found
00:39:34.205 : en:Volunteers
00:42:58.909 : en:I Believe in Him
00:46:43.300 : en:Nothing's Changed
00:49:02.606 : en:Stowaway
00:51:53.610 : en:See Your Enemy
00:58:00.643 : en:Give 'em Hell
01:00:19.115 : en:Detected
01:02:29.746 : en:Breaching the Dome
01:08:00.910 : en:Storming Sentinels
01:10:29.225 : en:Trying to Keep Up
01:14:33.802 : en:Unfinished Business
01:18:23.365 : en:Hell of a Pilot
01:23:08.984 : en:Report to the Council
01:25:55.817 : en:Believers
01:29:13.348 : en:Glimpse of the Sky
01:31:51.672 : en:Saying What Matters
01:36:51.472 : en:A Truce
01:41:55.275 : en:It Ends Tonight
01:44:53.120 : en:Urban Splash
01:48:06.646 : en:Neo's Choice
01:51:30.850 : en:Inevitable and Over
01:55:05.899 : en:Real Peace
01:57:31.210 : en:Freedom and Sunlight
02:00:12.371 : en:End Credits

x264 log

--[Information] [04.03.2014 9:41:18] Standard error stream
---[Information] raw [info]: 1920x798p 1:1 @ 24000/1001 fps (cfr)
---[Information] x264 [info]: using SAR=1/1
---[Information] x264 [info]: using cpu capabilities: MMX2 SSE2Fast SSSE3 SSE4.2 AVX
---[Information] x264 [info]: profile High, level 4.1
---[Information] x264 [info]: frame I:1384  Avg QP:16.43  size:153565
---[Information] x264 [info]: frame P:51160 Avg QP:19.36  size: 67486
---[Information] x264 [info]: frame B:133411 Avg QP:20.59  size: 31855
---[Information] x264 [info]: consecutive B-frames:  7.4%  5.5%  9.9% 18.8% 19.1% 31.1%  4.8%  2.7%  0.7%
---[Information] x264 [info]: mb I  I16..4: 11.0% 72.1% 16.9%
---[Information] x264 [info]: mb P  I16..4:  5.2% 30.2%  3.2%  P16..4: 37.3% 12.6%  7.3%  0.2%  0.1%    skip: 3.9%
---[Information] x264 [info]: mb B  I16..4:  0.7%  4.8%  0.6%  B16..8: 40.5% 10.3%  2.0%  direct:12.0%  skip:29.2%  L0:44.7% L1:42.7% BI:12.6%
---[Information] x264 [info]: 8x8 transform intra:78.5% inter:60.4%
---[Information] x264 [info]: direct mvs  spatial:98.5% temporal:1.5%
---[Information] x264 [info]: coded y,uvDC,uvAC intra: 85.5% 83.4% 52.0% inter: 34.1% 39.4% 10.5%
---[Information] x264 [info]: i16 v,h,dc,p: 40% 14% 15% 31%
---[Information] x264 [info]: i8 v,h,dc,ddl,ddr,vr,hd,vl,hu: 16% 10% 12%  8% 10% 11% 10% 12% 13%
---[Information] x264 [info]: i4 v,h,dc,ddl,ddr,vr,hd,vl,hu: 19% 11%  6%  8% 11% 12% 12% 10% 12%
---[Information] x264 [info]: i8c dc,h,v,p: 39% 24% 23% 14%
---[Information] x264 [info]: Weighted P-Frames: Y:8.7% UV:6.1%
---[Information] x264 [info]: ref P L0: 46.0%  7.8% 22.9% 10.9%  9.8%  2.4%  0.2%
---[Information] x264 [info]: ref B L0: 73.0% 19.2%  6.1%  1.7%
---[Information] x264 [info]: ref B L1: 90.7%  9.3%
---[Information] x264 [info]: kb/s:8164.00
---[Information] encoded 185955 frames, 7.79 fps, 8164.00 kb/s

Rip vs Source

BDRip-AVC 1080p
-Source (Blu-Ray)

Скриншоты

Внимание! Если у вас что-то не проигрывается, не гудит, не свистит: большая просьба ознакомиться с содержимым составленного для вашего удобства FAQ. Вопросы, ответы на которые есть в FAQ, будут игнорироваться.
Скачать

Скачать торрент!

Как скачивать? · Что такое торрент? · Рейтинг и ограничения

Сайт не распространяет и не хранит электронные версии произведений, а лишь предоставляет доступ к создаваемому пользователями каталогу ссылок на торрент-файлы, которые содержат только списки хеш-сумм

[Профиль] [ЛС]
Показать сообщения:    
Ответить на тему

Текущее время: Сегодня 14:37

Часовой пояс: GMT + 4



Вы не можете начинать темы
Вы не можете отвечать на сообщения
Вы не можете редактировать свои сообщения
Вы не можете удалять свои сообщения
Вы не можете голосовать в опросах
Вы не можете прикреплять файлы к сообщениям
Вы не можете скачивать файлы