Дело № А (Александр Вахитов) [2014, драма,литературная фантасмагория,короткометражный, DVDRip, AVC]

Ответить на тему
 
Автор Сообщение

user ®

Стаж: 7 лет 7 месяцев

Сообщений: 20008

Пост Пост: #1 от 10-Мар-2014 21:00

[Цитировать]

Дело № А / Литературный киноцикл "Серебро". Фильм второй.
Жанр: драма,литературная фантасмагория,короткометражный
Год выпуска: 2014
Продолжительность: 00:31:59
Режиссёр: Александр Вахитов
В ролях: Александр Федеряев, Владимир Латыпов-Догадов, Лора Смирнова, Адель Музафарова, Александрина Баландина.
Описание: Способна ли судьба изменить один день?
Простой вопрос. Конечно, да…
Но когда ищешь правду в призрачных осколках души великого человека, лапы режутся в кровь, носы теряют след, а совесть душит как строгий ошейник. Когда длинны поводка не хватает, чтоб дотянутся к самым потаенным уголкам правды, а протокол глухо задергивает темный занавес истины.
Их двое. Сотрудники КГБ Трефников и Бульбский, производят обыск в квартире Анны Ахматовой, через неделю после ее смерти. Сегодня они должны найти правду. И все изменится.
Способен ли один день изменить судьбу?
Сложный вопрос. А вдруг…
Доп. информация: Слоган: "Они пришли искать...Они нашли..."
Сэмпл: http://sendfile.su/951642
Качество видео: DVDRip
Формат видео: MP4
Видео: MP4Video, 720x576 (4:3), 25 fps, 5965 Kbps
Аудио: MPEG Audio, 224 Kbps; 48 kHz; stereo

MediaInfo

Полное имя : Дело № А.mp4
Формат : MPEG-PS
Размер файла : 1,25 Гбайт
Продолжительность : 28 м.
Режим общего битрейта : Переменный
Общий поток : 6315 Кбит/сек
Видео
Идентификатор : 224 (0xE0)
Формат : MP4 Video
Версия формата : Version 2
Профиль формата : Main@Main
Параметр BVOP формата : Да
Параметр матрицы формата : По умолчанию
Параметр GOP формата : M=3, N=12
Продолжительность : 28 м.
Вид битрейта : Переменный
Битрейт : 5965 Кбит/сек
Максимальный битрейт : 9500 Кбит/сек
Ширина : 720 пикселей
Высота : 576 пикселей
Соотношение сторон : 4:3
Частота кадров : 25,000 кадров/сек
Стандарт вещания : PAL
Цветовое пространство : YUV
Субдискретизация насыщенности : 4:2:0
Битовая глубина : 8 бит
Тип развёртки : Чересстрочная
Порядок развёртки : Нижнее поле первое
Метод сжатия : С потерями
Бит/(Пиксели*Кадры) : 0.575
Размер потока : 1,18 Гбайт (94%)
Аудио
Идентификатор : 192 (0xC0)
Формат : MPEG Audio
Версия формата : Version 1
Профиль формата : Layer 2
Продолжительность : 28 м.
Вид битрейта : Постоянный
Битрейт : 224 Кбит/сек
Каналы : 2 канала
Частота : 48,0 КГц
Метод сжатия : С потерями
Размер потока : 45,4 Мбайт (4%)

Скриншот c названием фильма

Скриншоты



Скачать

Скачать торрент!

Как скачивать? · Что такое торрент? · Рейтинг и ограничения

Сайт не распространяет и не хранит электронные версии произведений, а лишь предоставляет доступ к создаваемому пользователями каталогу ссылок на торрент-файлы, которые содержат только списки хеш-сумм

[Профиль] [ЛС]
Показать сообщения:    
Ответить на тему

Текущее время: Сегодня 22:33

Часовой пояс: GMT + 4



Вы не можете начинать темы
Вы не можете отвечать на сообщения
Вы не можете редактировать свои сообщения
Вы не можете удалять свои сообщения
Вы не можете голосовать в опросах
Вы не можете прикреплять файлы к сообщениям
Вы не можете скачивать файлы