Рыцари Крутости / Knights of Badassdom (Джо Линч / Joe Lynch) [2014, США, Приключения, Фэнтези, Комедия, HDRip] Sub Rus + Original Eng

Ответить на тему
 
Автор Сообщение

user ®

Стаж: 7 лет 7 месяцев

Сообщений: 20008

Пост Пост: #1 от 10-Мар-2014 01:25

[Цитировать]

Рыцари Крутости / Knights of Badassdom
Страна: США
Жанр: Приключения, Фэнтези, Комедия (IMDB), Трэш(мнение переводчика)
Год выпуска: 2014
Продолжительность: 01:25:00
Перевод: Субтитры, выполнен автором раздачи
Cубтитры: русские, английские
Оригинальная аудиодорожка: английский
Режиссер: Джо Линч/Joe Lynch
В ролях: Риан Квонтен (Ryan Kwanten), Стив Зан (Steve Zahn), Питер Динклэйдж (Peter Dinklage)
Описание: (с IMDB) Компания ролевиков случайно призывает демона.. и пытается разобраться с последствиями этого призыва
Доп. информация: Фильм жесток и не рекомендуется к просмотру детям, впечатлительным женщинам.. да и впечатлительным мужчинам тоже.
Сэмпл: http://multi-up.com/957343
Качество видео: HDRip
Формат видео: AVI
Видео: XVid, 720*299, 2.40:1, 23.976 fps, 0.310
Аудио: AC-3, 48.0 KHz, 384 Kbps, 6 channels
Формат субтитров: softsub (SRT)

MediaInfo

Format : AVI
Format/Info : Audio Video Interleave
Format profile : OpenDML
File size : 1.20 GiB
Duration : 1h 25mn
Overall bit rate : 1 996 Kbps
Movie name : Knights of Badassdom
Writing application : Lavf55.22.103
Video
ID : 0
Format : xvid
Codec ID : xvid
Duration : 1h 25mn
Bit rate : 1 599 Kbps
Width : 720 pixels
Height : 299 pixels
Display aspect ratio : 2.40:1
Frame rate : 23.976 fps
Bits/(Pixel*Frame) : 0.310
Stream size : 980 MiB (80%)
Audio
ID : 1
Format : AC-3
Format/Info : Audio Coding 3
Codec ID : 00001000-0000-0020-8000-00AA00389B71
Duration : 1h 25mn
Bit rate : 384 Kbps
Channel(s) : 6 channels
Channel positions : Front: L C R, Side: L R, LFE
Sampling rate : 48.0 KHz
Bit depth : 16 bits
Compression mode : Lossy
Stream size : 235 MiB (19%)
Interleave, duration : 32 ms (0.77 video frame)

Скриншоты

Скачать

Скачать торрент!

Как скачивать? · Что такое торрент? · Рейтинг и ограничения

Сайт не распространяет и не хранит электронные версии произведений, а лишь предоставляет доступ к создаваемому пользователями каталогу ссылок на торрент-файлы, которые содержат только списки хеш-сумм

[Профиль] [ЛС]
Показать сообщения:    
Ответить на тему

Текущее время: Сегодня 15:36

Часовой пояс: GMT + 4



Вы не можете начинать темы
Вы не можете отвечать на сообщения
Вы не можете редактировать свои сообщения
Вы не можете удалять свои сообщения
Вы не можете голосовать в опросах
Вы не можете прикреплять файлы к сообщениям
Вы не можете скачивать файлы