Гейша / The Geisha - Yokiro (Хидэо Гося / Hideo Gosha) [1983, Япония, Драма, якудза-эйга, DVDRip] VO

Ответить на тему
 
Автор Сообщение

user ®

Стаж: 11 лет

Сообщений: 15151

Пост Пост: #1 от 09-Мар-2014 22:15

[Цитировать]

Гейша / The Geisha - Yokiro
Страна: Студия "Тоэй", Япония
Жанр: Драма,якудза-эйга
Год выпуска: 1983
Продолжительность: 02:18:20
Перевод: Одноголосый закадровый Студия Sakura.Озвучил Delonnn
Cубтитры: нет
Режиссер: Хидэо Гося / Hideo Gosha
В ролях: Кен Огата, Кимико Икегами, Ацуко Асано, Мицуко Байшо, Морио Казама, Акико Кана, Микио Нарита, Асао Койке, Тецуро Тамба
Описание: Япония 1933 год. Двадцать лет назад, Кацузо был влюблен в гейшу по имени Цуру, которая подарила ему дочь. Они попытались вместе бежать, но были пойманы и Цуру была убита на его глазах. Теперь он сутенер, продающий девочек в Юкиро, крупнейший Дом гейш на юге Японии, находящийся в ведении Осоде, его новой любовницы. Его дочь, которая выросла и воспитывалась в Юкиро, становится знаменитой гейшей, являющейся подлинным украшением Юкиро. Кацузо пытается противостоять клану Иназо, из Осаки, стремящегося распространить сферу своего влияния на Юкиро.Фильм поставлен по мотивам второй книги трилогии Tomiko Miyao.
Качество видео: DVDRip
Формат видео: AVI
Видео: XviD,1501Кбит/с, 720x376
Аудио: MP3, 2 ch, 128 Кбит/с русская озвучка Delonnn
Доп. информация о субтитрах: нет

MediaInfo

General
Complete name : G:\Гейша\Geisha.1983.XviD.DVDRip.Sakura.avi
Format : AVI
Format/Info : Audio Video Interleave
File size : 1.84 GiB
Duration : 2h 18mn
Overall bit rate : 1 899 Kbps
Writing application : VirtualDubMod 1.5.10.2 (build 2540/release)
Writing library : VirtualDubMod build 2540/release
Video
ID : 0
Format : MPEG-4 Visual
Format profile : Advanced Simple@L5
Format settings, BVOP : 1
Format settings, QPel : No
Format settings, GMC : No warppoints
Format settings, Matrix : Default (MPEG)
Codec ID : XVID
Codec ID/Hint : XviD
Duration : 2h 18mn
Bit rate : 1 501 Kbps
Width : 720 pixels
Height : 376 pixels
Display aspect ratio : 1.915
Frame rate : 25.000 fps
Color space : YUV
Chroma subsampling : 4:2:0
Bit depth : 8 bits
Scan type : Progressive
Compression mode : Lossy
Bits/(Pixel*Frame) : 0.222
Stream size : 1.45 GiB (79%)
Writing library : XviD 1.1.2 (UTC 2006-11-01)
Audio #1
ID : 1
Format : MPEG Audio
Format version : Version 1
Format profile : Layer 3
Mode : Joint stereo
Mode extension : MS Stereo
Codec ID : 55
Codec ID/Hint : MP3
Duration : 2h 18mn
Bit rate mode : Constant
Bit rate : 128 Kbps
Channel(s) : 2 channels
Sampling rate : 48.0 KHz
Compression mode : Lossy
Stream size : 127 MiB (7%)
Alignment : Aligned on interleaves
Interleave, duration : 40 ms (1.00 video frame)
Interleave, preload duration : 504 ms
Audio #2
ID : 2
Format : AC-3
Format/Info : Audio Coding 3
Mode extension : CM (complete main)
Format settings, Endianness : Big
Codec ID : 2000
Duration : 2h 18mn
Bit rate mode : Constant
Bit rate : 256 Kbps
Channel(s) : 2 channels
Channel positions : Front: L R
Sampling rate : 48.0 KHz
Bit depth : 16 bits
Compression mode : Lossy
Stream size : 253 MiB (13%)
Alignment : Split accross interleaves
Interleave, duration : 40 ms (1.00 video frame)
Interleave, preload duration : 500 ms

Скриншот c названием фильма

Скриншоты


Скачать

Скачать торрент! Гейша / The Geisha - Yokiro (Хидэо Гося / Hideo Gosha) [1983, Япония, Драма, якудза-эйга, DVDRip] VO

Как скачивать? · Что такое торрент? · Рейтинг и ограничения

Сайт не распространяет и не хранит электронные версии произведений, а лишь предоставляет доступ к создаваемому пользователями каталогу ссылок на торрент-файлы, которые содержат только списки хеш-сумм

[Профиль] [ЛС]
Показать сообщения:    
Ответить на тему

Текущее время: Сегодня 05:16

Часовой пояс: GMT + 4



Вы не можете начинать темы
Вы не можете отвечать на сообщения
Вы не можете редактировать свои сообщения
Вы не можете удалять свои сообщения
Вы не можете голосовать в опросах
Вы не можете прикреплять файлы к сообщениям
Вы не можете скачивать файлы