Кровавое пристанище / Blood Shed (Патрик Хассон / Patrick Hasson) [2014, США, Ужасы, WEB-DL 720p] VO (Хихикающий Доктор) + Sub Eng + Original Eng

Ответить на тему
 
Автор Сообщение

user ®

Стаж: 7 лет 7 месяцев

Сообщений: 20008

Пост Пост: #1 от 09-Мар-2014 22:15

[Цитировать]

Кровавое Пристанище / Blood Shed
Страна: США
Жанр: Ужасы
Год выпуска: 2014
Продолжительность: 01:34:02
Перевод: Любительский (одноголосый закадровый) (Хихикающий Доктор)
Cубтитры: английские
Оригинальная аудиодорожка: английский
Режиссер: Патрик Хассон / Patrick Hasson
В ролях: Гэбриел Де Санти, Бай Лин, Бриана Эссринг, Чери Дэйли, Вида Гуерра, Брэндон Рэтклифф, Яша Блэкман, Крис Хэмптон, Джуллиса Линн, Кваадир Ховард
Описание: Бездомные люди, ночуют на складе, который переоборудован под контейнеры временного хранения вещей. Однажды ночью, несколько бездомных, остаются запертыми с невменяемой женщиной, которая охотится за ними в поисках своего потерянного ребенка. Фильмы основаных на реальных событиях.
Доп. информация:
Сэмпл: http://sendfile.su/950949
Качество видео: WEB-DL 720p
Формат видео: MKV
Видео: AVC, 1280x720, 23,976 кадра/сек, 3871 Кбит/сек
Аудио: AC-3, 44,1 КГц, 192 Кбит/сек (2 канала) (Rus)
Аудио 2: AC-3, 48,0 КГц, 384 Кбит/сек (6 канала) (Eng)
Формат субтитров: softsub (SRT) [Eng]
Дополнительно: Сохранены оригинальные чаптеры как на Blu-Ray

MediaInfo

Формат : Matroska
Версия формата : Version 4 / Version 2
Размер файла : 2,98 Гбайт
Продолжительность : 1 ч. 34 м.
Общий поток : 4538 Кбит/сек
Дата кодирования : UTC 2014-03-08 17:28:23
Программа кодирования : mkvmerge v6.1.0 ('Old Devil') built on Mar 4 2013 09:10:42
Библиотека кодирования : libebml v1.3.0 + libmatroska v1.4.0
Видео
Идентификатор : 1
Формат : AVC
Формат/Информация : Advanced Video Codec
Профиль формата : High@L3.1
Параметр CABAC формата : Нет
Параметр ReFrames формата : 2 кадра
Идентификатор кодека : V_MPEG4/ISO/AVC
Продолжительность : 1 ч. 34 м.
Битрейт : 3871 Кбит/сек
Ширина : 1280 пикселей
Высота : 720 пикселей
Соотношение сторон : 16:9
Режим частоты кадров : Постоянный
Частота кадров : 23,976 кадра/сек
Цветовое пространство : YUV
Субдискретизация насыщенности : 4:2:0
Битовая глубина : 8 бит
Тип развёртки : Прогрессивная
Бит/(Пиксели*Кадры) : 0.175
Размер потока : 2,54 Гбайт (85%)
Язык : English
Default : Да
Forced : Нет
Основные цвета : BT.709
Характеристики трансфера : BT.709
Коэффициенты матрицы : BT.709
Аудио #1
Идентификатор : 2
Формат : AC-3
Формат/Информация : Audio Coding 3
Расширение режима : CM (complete main)
Параметр Endianness формата : Big
Идентификатор кодека : A_AC3
Продолжительность : 1 ч. 34 м.
Вид битрейта : Постоянный
Битрейт : 192 Кбит/сек
Каналы : 2 канала
Расположение каналов : Front: L R
Частота : 44,1 КГц
Битовая глубина : 16 бит
Метод сжатия : С потерями
Размер потока : 129 Мбайт (4%)
Язык : Russian
Default : Да
Forced : Нет
Аудио #2
Идентификатор : 3
Формат : AC-3
Формат/Информация : Audio Coding 3
Расширение режима : CM (complete main)
Параметр Endianness формата : Big
Идентификатор кодека : A_AC3
Продолжительность : 1 ч. 34 м.
Вид битрейта : Постоянный
Битрейт : 384 Кбит/сек
Каналы : 6 каналов
Расположение каналов : Front: L C R, Side: L R, LFE
Частота : 48,0 КГц
Битовая глубина : 16 бит
Метод сжатия : С потерями
Размер потока : 258 Мбайт (8%)
Язык : English
Default : Нет
Forced : Нет
Текст
Идентификатор : 4
Формат : UTF-8
Идентификатор кодека : S_TEXT/UTF8
Идентификатор кодека/Информация : UTF-8 Plain Text
Язык : English
Default : Нет
Forced : Нет
Меню
00:00:00.000 : en:Chapter 1
00:09:29.000 : en:Chapter 2
00:19:49.000 : en:Chapter 3
00:29:22.000 : en:Chapter 4
00:40:38.000 : en:Chapter 5
00:51:29.000 : en:Chapter 6
01:01:28.000 : en:Chapter 7
01:11:29.000 : en:Chapter 8
01:22:27.000 : en:Chapter 9
01:30:50.000 : en:Chapter 10

Скриншот c названием фильма

Скриншоты

Скачать

Скачать торрент!

Как скачивать? · Что такое торрент? · Рейтинг и ограничения

Сайт не распространяет и не хранит электронные версии произведений, а лишь предоставляет доступ к создаваемому пользователями каталогу ссылок на торрент-файлы, которые содержат только списки хеш-сумм

[Профиль] [ЛС]
Показать сообщения:    
Ответить на тему

Текущее время: Сегодня 05:53

Часовой пояс: GMT + 4



Вы не можете начинать темы
Вы не можете отвечать на сообщения
Вы не можете редактировать свои сообщения
Вы не можете удалять свои сообщения
Вы не можете голосовать в опросах
Вы не можете прикреплять файлы к сообщениям
Вы не можете скачивать файлы