Сердцебиение / Heartbeat / Shimjangyi Dwoenda (Юн Чжэ Кын / Yoon Jae Keun) [2011, Южная Корея, драма, DVDRip] DVO (DeadSno & den904) + VO (Тим Вагнер) + Sub Rus

Ответить на тему
 
Автор Сообщение

user ®

Стаж: 11 лет

Сообщений: 15151

Пост Пост: #1 от 09-Мар-2014 02:10

[Цитировать]

Сердцебиение / Heartbeat / Shimjangyi Dwoenda
Страна: Южная Корея
Жанр: драма
Год выпуска: 2011
Продолжительность: 01:54:22
Перевод 1: Любительский (двухголосый закадровый) [DeadSno & den904]
Перевод 2: Одноголосый закадровый [Тим Вагнер]
Cубтитры: русские [Svartkatt]
Оригинальная аудиодорожка: корейский
Режиссер: Юн Чжэ Кын / Yoon Jae Keun
В ролях: Ким Юн Чжин / Kim Yoon Jin, Пак Хэ Иль / Park Hae Il, Пак Ха Ён / Park Ha Young, Чон Да Хе / Jeong Da Hye, Ким Сан Хо / Kim Sang Ho, Чжу Чжин Мо / Joo Jin Mo и др.
Описание: Чхэ Юн Хи - обеспеченная женщина, директор школы по изучению английского языка. После смерти мужа дочка Е Ын стала её единственным сокровищем в жизни. Но у Е Ын от рождения больное сердце, и после каждого приступа ситуация становится всё серьёзнее. Единственный выход - донор, который бы отдал больной девочке своё сердце и которого, разумеется, найти тяжело. Однажды в ту же больницу привозят женщину с такой же группой крови, как и у девочки, и женщина эта в тяжёлом состоянии, она впала в кому, и её мозг практически не функционирует. Казалось бы, чудо свершилось! Осталось только договориться с опекуном, подписать бумаги, заплатить деньги... Но тут объявляется сын этой женщины, Ли Хи Ду - 30-летний молодой человек, который только и делал, что бездельничал и требовал с матери деньги. И вот теперь в нём вдруг проснулась совесть... Теперь, когда его мать на пороге смерти, он осознал, что за всю жизнь не сделал для неё ничего хорошего. Эти два человека начинают отчаянно бороться друг с другом каждый за своё, они готовы пойти абсолютно на всё...(© Svartkatt)
Сэмпл: http://multi-up.com/957294
Качество видео: DVDRip
Формат видео: AVI
Видео: 720x320 (2.25:1), 23.976 fps, XviD build 50 ~1258 kbps avg, 0.23 bit/pixel
Аудио 1: 48 kHz, AC3 Dolby Digital, 3/2 (L,C,R,l,r) + LFE ch, ~448 kbps - [DVO]
Аудио 2: 48 kHz, AC3 Dolby Digital, 2/0 (L,R) ch, ~192 kbps - [VO] [отдельным файлом]
Аудио 3: 48 kHz, AC3 Dolby Digital, 3/2 (L,C,R,l,r) + LFE ch, ~448 kbps - [Original] [отдельным файлом]
Формат субтитров: softsub (SRT)

MediaInfo

General
Complete name : C:\Heartbeat.2011.avi
Format : AVI
Format/Info : Audio Video Interleave
File size : 1.37 GiB
Duration : 1h 54mn
Overall bit rate : 1 716 Kbps
Writing application : VirtualDubModRus 1.5.10.2 (build 2542/release)
Writing library : VirtualDubMod build 2542/release
Video
ID : 0
Format : MPEG-4 Visual
Format profile : Advanced Simple@L5
Format settings, BVOP : 1
Format settings, QPel : No
Format settings, GMC : No warppoints
Format settings, Matrix : Custom
Codec ID : XVID
Codec ID/Hint : XviD
Duration : 1h 54mn
Bit rate : 1 259 Kbps
Width : 720 pixels
Height : 320 pixels
Display aspect ratio : 2.25:1
Frame rate : 23.976 fps
Color space : YUV
Chroma subsampling : 4:2:0
Bit depth : 8 bits
Scan type : Progressive
Compression mode : Lossy
Bits/(Pixel*Frame) : 0.228
Stream size : 1.01 GiB (73%)
Writing library : XviD 1.2.1 (UTC 2008-12-04)
Audio
ID : 1
Format : AC-3
Format/Info : Audio Coding 3
Mode extension : CM (complete main)
Format settings, Endianness : Big
Codec ID : 2000
Duration : 1h 54mn
Bit rate mode : Constant
Bit rate : 448 Kbps
Channel count : 6 channels
Channel positions : Front: L C R, Side: L R, LFE
Sampling rate : 48.0 KHz
Bit depth : 16 bits
Compression mode : Lossy
Stream size : 366 MiB (26%)
Alignment : Split accross interleaves
Interleave, duration : 42 ms (1.00 video frame)
Interleave, preload duration : 500 ms
Language : Korean

Скриншоты

Скачать

Скачать торрент! Сердцебиение / Heartbeat / Shimjangyi Dwoenda (Юн Чжэ Кын / Yoon Jae Keun) [2011, Южная Корея, драма, DVDRip] DVO (DeadSno & den904) + VO (Тим Вагнер) + Sub Rus

Как скачивать? · Что такое торрент? · Рейтинг и ограничения

Сайт не распространяет и не хранит электронные версии произведений, а лишь предоставляет доступ к создаваемому пользователями каталогу ссылок на торрент-файлы, которые содержат только списки хеш-сумм

[Профиль] [ЛС]
Показать сообщения:    
Ответить на тему

Текущее время: Сегодня 16:19

Часовой пояс: GMT + 4



Вы не можете начинать темы
Вы не можете отвечать на сообщения
Вы не можете редактировать свои сообщения
Вы не можете удалять свои сообщения
Вы не можете голосовать в опросах
Вы не можете прикреплять файлы к сообщениям
Вы не можете скачивать файлы