Меч отмщения 6: Белые небеса ада / Lone Wolf and Cub: White heavens hell / Kozure okami: Jigoku e ikuzo! Daigoro (Йошиюки Курода / Yoshiyuki Kuroda) [1974, Япония, драма, самурайский боевик, HDRip] AVO + Original Jap + Sub Rus, Eng

Ответить на тему
 
Автор Сообщение

user ®

Стаж: 11 лет

Сообщений: 15151

Пост Пост: #1 от 09-Мар-2014 02:10

[Цитировать]

Меч отмщения 6: Белые небеса ада / Lone Wolf and Cub: White heavens hell / Kozure okami: Jigoku e ikuzo! Daigoro- -Страна: Япония
Жанр: драма, самурайский боевик
Год выпуска: 1974
Продолжительность: 01:23:35-Перевод: Авторский (одноголосый закадровый) [Сергей Кузнецов]-Cубтитры: русские (Keygeneral, miky_m) английские [отдельно]
Оригинальная аудиодорожка: японский
Режиссер: Йошиюки Курода / Yoshiyuki Kuroda
В ролях: Томисабуро Вакаяма, Митиё Окусу, Акихиро Томикава, Шинго Ямасиро, Томоми Сато, Акира Ямаути, Хидэдзи Отаки, Такэтоси Найто, Фудзио Суга, Рокко Тоура..
Описание: Шестой фильм из серии Одинокий волк и его ребенок. В этой, последней, серии злой князь Ягю Рэцудо, которому до сих пор не удалось устранить Огами, решает применить своё последнее оружие. Это оружие — его дочь Каори, неофициальный сын от наложницы Хайеи, и сверхъестественные воины клана Демонов Гор ташигумо, которые могли передвигаться под землёй, как будто бы это была вода.
Если и на этот раз не удастся убить Огами, у Рэцудо не останется иного выбора, кроме как поднять против него всех воинов своего теневого клана. При численном превосходстве Ягю Огами никак не сможет выжить. Для этого ему придётся сразить всех воинов клана Ягю и клана Ташигумо.
Огами Итто и его сын всегда готовы к смерти. Но готов ли к смерти Рецудо?.
Качество видео: HDRip
Формат видео: AVI
Видео: MPEG-4 Visual at 2101 Кбит/сек; 720 x 304 (2.368) at 23.976 fps
Аудио: AC-3 at 192 Кбит/сек; 2 канала, 48,0 КГц [AVO]
Аудио: AC-3 at 224 Кбит/сек; 2 канала, 48,0 КГц [Jap]
Релиз от -

MediaInfo

Общее
Полное имя : D:\Фильмы\Азиатские\Меч отмщения 6\Sword of Vengeance 6.1974.HDRip.XviD.1400MB. rip by [Assassin's Creed]\Sword of Vengeance 6.1974.HDRip.XviD.1400MB. rip by [Assassin's Creed].avi
Формат : AVI
Формат/Информация : Audio Video Interleave
Размер файла : 1,48 Гбайт
Продолжительность : 1 ч. 23 м.
Общий поток : 2531 Кбит/сек
Программа кодирования : VirtualDubMod 1.5.10.2 (build 2540/release)
Библиотека кодирования : VirtualDubMod build 2540/release
Видео
Идентификатор : 0
Формат : MPEG-4 Visual
Профиль формата : Advanced Simple@L5
Параметр BVOP формата : 1
Параметр QPel формата : Нет
Параметр GMC формата : Без точки перехода
Параметр матрицы формата : Default (MPEG)
Идентификатор кодека : DX50
Идентификатор кодека/Подсказка : DivX 5
Продолжительность : 1 ч. 23 м.
Битрейт : 2101 Кбит/сек
Ширина : 720 пикселей
Высота : 304 пикселя
Соотношение сторон : 2,35:1
Частота кадров : 23,976 кадра/сек
Цветовое пространство : YUV
Субдискретизация насыщенности : 4:2:0
Битовая глубина : 8 бит
Тип развёртки : Прогрессивная
Метод сжатия : С потерями
Бит/(Пиксели*Кадры) : 0.400
Размер потока : 1,23 Гбайт (83%)
Библиотека кодирования : XviD 1.2.1 (UTC 2008-12-04)
Аудио #1
Идентификатор : 1
Формат : AC-3
Формат/Информация : Audio Coding 3
Расширение режима : CM (complete main)
Параметр Endianness формата : Big
Идентификатор кодека : 2000
Продолжительность : 1 ч. 23 м.
Вид битрейта : Постоянный
Битрейт : 192 Кбит/сек
Каналы : 2 канала
Расположение каналов : Front: L R
Частота : 48,0 КГц
Битовая глубина : 16 бит
Метод сжатия : С потерями
Размер потока : 115 Мбайт (8%)
Выравнивание : Разделение по промежуткам
Продолжительность промежутка : 42 мс. (1,00 видеокадр)
Время предзагрузки промежутка : 500 мс.
Аудио #2
Идентификатор : 2
Формат : AC-3
Формат/Информация : Audio Coding 3
Расширение режима : CM (complete main)
Параметр Endianness формата : Big
Идентификатор кодека : 2000
Продолжительность : 1 ч. 23 м.
Вид битрейта : Постоянный
Битрейт : 224 Кбит/сек
Каналы : 2 канала
Расположение каналов : Front: L R
Частота : 48,0 КГц
Битовая глубина : 16 бит
Метод сжатия : С потерями
Размер потока : 134 Мбайт (9%)
Выравнивание : Разделение по промежуткам
Продолжительность промежутка : 42 мс. (1,00 видеокадр)
Время предзагрузки промежутка : 500 мс.
Общее
Полное имя : D:\Фильмы\Азиатские\Меч отмщения 6\Sword of Vengeance 6.1974.HDRip.XviD.1400MB. rip by [Assassin's Creed]\Sword of Vengeance 6.Eng.srt
Формат : SubRip
Размер файла : 30,4 Кбайт
Текст
Формат : SubRip
Метод сжатия : Без потерь
Общее
Полное имя : D:\Фильмы\Азиатские\Меч отмщения 6\Sword of Vengeance 6.1974.HDRip.XviD.1400MB. rip by [Assassin's Creed]\Sword of Vengeance 6.miky_m.srt
Формат : SubRip
Размер файла : 45,7 Кбайт
Текст
Формат : SubRip
Метод сжатия : Без потерь
Общее
Полное имя : D:\Фильмы\Азиатские\Меч отмщения 6\Sword of Vengeance 6.1974.HDRip.XviD.1400MB. rip by [Assassin's Creed]\Sword of Vengeance 6.Кeygeneral.srt
Формат : SubRip
Размер файла : 38,2 Кбайт
Текст
Формат : SubRip
Метод сжатия : Без потерь

Скриншот c названием фильма

Скриншоты

Скачать

Скачать торрент! Меч отмщения 6: Белые небеса ада / Lone Wolf and Cub: White heavens hell / Kozure okami: Jigoku e ikuzo! Daigoro (Йошиюки Курода / Yoshiyuki Kuroda) [1974, Япония, драма, самурайский боевик, HDRip] AVO + Original Jap + Sub Rus, Eng

Как скачивать? · Что такое торрент? · Рейтинг и ограничения

Сайт не распространяет и не хранит электронные версии произведений, а лишь предоставляет доступ к создаваемому пользователями каталогу ссылок на торрент-файлы, которые содержат только списки хеш-сумм

[Профиль] [ЛС]
Показать сообщения:    
Ответить на тему

Текущее время: Сегодня 09:56

Часовой пояс: GMT + 4



Вы не можете начинать темы
Вы не можете отвечать на сообщения
Вы не можете редактировать свои сообщения
Вы не можете удалять свои сообщения
Вы не можете голосовать в опросах
Вы не можете прикреплять файлы к сообщениям
Вы не можете скачивать файлы