100 девчонок и одна в лифте / 100 Girls (Майкл Дэвис / Michael Davis) [2000 г., США, молодежная комедия, WEB-DL 720p] Dub + MVO (Ukr) + Original (Eng) + sub (Eng, Rus)

Ответить на тему
 
Автор Сообщение

user ®

Стаж: 7 лет 7 месяцев

Сообщений: 20008

Пост Пост: #1 от 08-Мар-2014 23:00

[Цитировать]

100 девчонок и одна в лифте / 100 Girls- Страна: США
Жанр: комедия, романтика
Год выпуска: 2000
Продолжительность: 01:34:46
Перевод 1: Профессиональный (полное дублирование)
Перевод 2: Многоголосый закадровый (украинский)
Cубтитры: русские, английские
Оригинальная дорожка: английский--Режиссер: Майкл Дэвис / Michael Davis
В ролях: Джонатан Такер, Эммануэль Шрики, Джеймс ДеБелло, Кэтрин Хейгл, Лариса Олейник, Джейми Прессли, Марисса Рибизи, Джон Грин мл., Эйми Грэм, Эндж Биллман, Кристина Анапау, Рэйнбо Марс, Моника Уэрта, Рейли МакЛарен, Кристин Херольд, Аня Марина, Жозефин Анджелини, Джулианн Стегер, Ивана Бозилович, Даниэль Хувер, Эрик Шманда, Анита Томас, Сара Кармайкл, Кристал Вонг, Нэнси Уолтерс, Брэдли К. Росс, Лидия Дакота, Элли Мерседес, Лори Кэтерин Андерсон, Кандра Северсон, Джон О’Хара, Ховард Уолкер, Тамара Ли Крински, Дастин Кортни, Дэннис Мадалон, Фариназ Фаррух, Аллен Пэйн, Керстин Линдквист, Эхуд Блайберг, Мэдисон Брэндон, Теренс Майкл--Описание: Мэтью, студент колледжа, знакомится с девушкой своей мечты в лифте. В чем проблема? В лифте не было света, зато был классный секс! И проснувшись утром, Мэтью видит, что электричество есть, а девушки нет. Он влюбляется в нее, не увидев ее лица. Все что известно — она одна из 100 девушек женского общежития. Герой решает проникнуть туда и отыскать ее.--
Качество видео: WEB-DL 720p
Формат видео: MKV
Видео: H.264, 1280x718, 4130 Kbps, 23.976 fps
Аудио #1: AC3 Dolby Digital, 48 kHz, 448 kbps, 5.1 ch - Дубляж
Аудио #2: AC3 Dolby Digital, 48 kHz, 192 kbps, 2.0 ch - Многоголосый (украинский)
Аудио #2: AC3 Dolby Digital, 48 kHz, 384 kbps, 5.1 ch - Оригинал (английский)
Субтитры: softsub (SRT) - русские, английские-

Скриншоты


Резервные скриншоты


MediaInfo

Format                                   : Matroska
Format version                           : Version 4 / Version 2
File size                                : 3.48 GiB
Duration                                 : 1h 34mn
Overall bit rate                         : 5 259 Kbps
Movie name                               : 100 девчонок и одна в лифте / 100 Girls (2000) Web-DL 720p by RG Torrents.ru
Encoded date                             : UTC 2014-03-07 16:40:51
Writing application                      : mkvmerge v6.8.0 ('Theme for Great Cities') 32bit built on Mar  2 2014 21:27:07
Writing library                          : libebml v1.3.0 + libmatroska v1.4.1
Attachment                               : Yes
Video
ID                                       : 1
Format                                   : AVC
Format/Info                              : Advanced Video Codec
Format profile                           : High@L3.1
Format settings, CABAC                   : No
Format settings, ReFrames                : 2 frames
Codec ID                                 : V_MPEG4/ISO/AVC
Duration                                 : 1h 34mn
Bit rate                                 : 4 130 Kbps
Width                                    : 1 280 pixels
Height                                   : 718 pixels
Display aspect ratio                     : 16:9
Frame rate mode                          : Constant
Frame rate                               : 23.976 fps
Color space                              : YUV
Chroma subsampling                       : 4:2:0
Bit depth                                : 8 bits
Scan type                                : Progressive
Bits/(Pixel*Frame)                       : 0.187
Stream size                              : 2.73 GiB (79%)
Language                                 : English
Default                                  : Yes
Forced                                   : No
Color primaries                          : BT.709
Transfer characteristics                 : BT.709
Matrix coefficients                      : BT.709
Audio #1
ID                                       : 2
Format                                   : AC-3
Format/Info                              : Audio Coding 3
Mode extension                           : CM (complete main)
Format settings, Endianness              : Big
Codec ID                                 : A_AC3
Duration                                 : 1h 34mn
Bit rate mode                            : Constant
Bit rate                                 : 448 Kbps
Channel(s)                               : 6 channels
Channel positions                        : Front: L C R, Side: L R, LFE
Sampling rate                            : 48.0 KHz
Bit depth                                : 16 bits
Compression mode                         : Lossy
Stream size                              : 304 MiB (9%)
Title                                    : DUB
Language                                 : Russian
Default                                  : Yes
Forced                                   : No
Audio #2
ID                                       : 3
Format                                   : AC-3
Format/Info                              : Audio Coding 3
Mode extension                           : CM (complete main)
Format settings, Endianness              : Big
Codec ID                                 : A_AC3
Duration                                 : 1h 34mn
Bit rate mode                            : Constant
Bit rate                                 : 192 Kbps
Channel(s)                               : 2 channels
Channel positions                        : Front: L R
Sampling rate                            : 48.0 KHz
Bit depth                                : 16 bits
Compression mode                         : Lossy
Stream size                              : 130 MiB (4%)
Title                                    : MVO
Language                                 : Ukrainian
Default                                  : No
Forced                                   : No
Audio #3
ID                                       : 4
Format                                   : AC-3
Format/Info                              : Audio Coding 3
Mode extension                           : CM (complete main)
Format settings, Endianness              : Big
Codec ID                                 : A_AC3
Duration                                 : 1h 34mn
Bit rate mode                            : Constant
Bit rate                                 : 384 Kbps
Channel(s)                               : 6 channels
Channel positions                        : Front: L C R, Side: L R, LFE
Sampling rate                            : 48.0 KHz
Bit depth                                : 16 bits
Compression mode                         : Lossy
Stream size                              : 260 MiB (7%)
Title                                    : ENG
Language                                 : English
Default                                  : No
Forced                                   : No
Text #1
ID                                       : 5
Format                                   : UTF-8
Codec ID                                 : S_TEXT/UTF8
Codec ID/Info                            : UTF-8 Plain Text
Language                                 : Russian
Default                                  : No
Forced                                   : No
Text #2
ID                                       : 6
Format                                   : UTF-8
Codec ID                                 : S_TEXT/UTF8
Codec ID/Info                            : UTF-8 Plain Text
Title                                    : SDH
Language                                 : English
Default                                  : No
Forced                                   : No
Menu
00:00:00.000                             : en:Chapter 1
00:08:08.000                             : en:Chapter 2
00:17:14.000                             : en:Chapter 3
00:26:44.000                             : en:Chapter 4
00:33:45.000                             : en:Chapter 5
00:43:36.000                             : en:Chapter 6
00:53:04.000                             : en:Chapter 7
01:01:33.000                             : en:Chapter 8
01:11:23.000                             : en:Chapter 9
01:18:29.000                             : en:Chapter 10
01:24:57.000                             : en:Chapter 11
01:30:15.000                             : en:Chapter 12
Скачать

Скачать торрент!

Как скачивать? · Что такое торрент? · Рейтинг и ограничения

Сайт не распространяет и не хранит электронные версии произведений, а лишь предоставляет доступ к создаваемому пользователями каталогу ссылок на торрент-файлы, которые содержат только списки хеш-сумм

[Профиль] [ЛС]
Показать сообщения:    
Ответить на тему

Текущее время: Сегодня 01:49

Часовой пояс: GMT + 4



Вы не можете начинать темы
Вы не можете отвечать на сообщения
Вы не можете редактировать свои сообщения
Вы не можете удалять свои сообщения
Вы не можете голосовать в опросах
Вы не можете прикреплять файлы к сообщениям
Вы не можете скачивать файлы