Полночный переход / Midnight Crossing (Роджер Холзберг / Roger Holzberg) [1988 г., США, Триллер, Приключения, Web-DL 720p] AVO (Михалев) + Original Eng + Sub Eng

Ответить на тему
 
Автор Сообщение

user ®

Стаж: 7 лет 7 месяцев

Сообщений: 20008

Пост Пост: #1 от 08-Мар-2014 19:50

[Цитировать]

-Полночный переходMidnight Crossing- -Страна: США
Жанр: Триллер, Приключения
Год выпуска: 1988
Продолжительность: 01:36:46-Перевод: Авторский (одноголосый закадровый) А. Михалев
Cубтитры: английские
Оригинальная аудиодорожка: английская-Режиссер: Роджер Холзберг / Roger Holzberg-В ролях: Фэй Данауэй, Дэниел Дж. Траванти, Ким Кэтролл, Джон Лофлин, Нед Битти, Педро Де Пул, Даг Вайзер, Винсент Фолл, Майкл Томпсон, Чик Бернхард-Описание: Две семейные пары отправляются в круиз на Багамы на фешенебельной 20-метровой яхте. Но, выйдя в море, яхта берет другой курс — на остров в Карибском море недалеко от Кубы. Незадолго до прихода к власти Фиделя Кастро на острове была спрятана крупная сумма денег.
В тысяче миль от берега, вдали от цивилизованного мира свобода превращается в опасный наркотик. Каждый из участников круиза пытается нарушить все предварительные договоренности о дележе денег. Романтическое путешествие «искателей сокровищ» превращается в смертельно опасную игру, ставка в которой — миллион долларов…-Пример: http://yadi.sk/d/N1nzmBmvK4apB-Качество видео: Web-DL 720p
Формат видео: MKV-Видео: 1280х718 (16:9), MPEG-4 AVC, ~ 23.976 fps, 4 114 Kbps, 0.187 Bits/Pixel
Аудио #1: 48 kHz, AC3 Dolby Digital, 2/0 (L,R), ~192.00 kbps avg (А. Михалев)
Аудио #2: 48 kHz, AC3 Dolby Digital, 2/0 (L,R), ~192.00 kbps avg (Original)
Субтитры: английские (UTF-8)-
Звуковая дорожка с переводом Алексея Михалева появилась благодаря budulai-8.

-

MediaInfo

General
Unique ID : 218705851548718883551364302175913990761 (0xA48937007A48D28DB44331C9325D5A69)
Format : Matroska
Format version : Version 4 / Version 2
File size : 3.10 GiB
Duration : 1h 36mn
Overall bit rate : 4 589 Kbps
Encoded date : UTC 2014-03-06 12:09:13
Writing application : mkvmerge v6.8.0 ('Theme for Great Cities') 32bit built on Mar 2 2014 21:27:07
Writing library : libebml v1.3.0 + libmatroska v1.4.1
Video
ID : 1
Format : AVC
Format/Info : Advanced Video Codec
Format profile : High@L3.1
Format settings, CABAC : No
Format settings, ReFrames : 2 frames
Codec ID : V_MPEG4/ISO/AVC
Duration : 1h 36mn
Bit rate : 4 114 Kbps
Width : 1 280 pixels
Height : 718 pixels
Display aspect ratio : 16:9
Frame rate mode : Constant
Frame rate : 23.976 fps
Color space : YUV
Chroma subsampling : 4:2:0
Bit depth : 8 bits
Scan type : Progressive
Bits/(Pixel*Frame) : 0.187
Stream size : 2.78 GiB (90%)
Language : English
Default : Yes
Forced : No
Color primaries : BT.709
Transfer characteristics : BT.709
Matrix coefficients : BT.709
Audio #1
ID : 2
Format : AC-3
Format/Info : Audio Coding 3
Mode extension : CM (complete main)
Format settings, Endianness : Big
Codec ID : A_AC3
Duration : 1h 36mn
Bit rate mode : Constant
Bit rate : 192 Kbps
Channel(s) : 2 channels
Channel positions : Front: L R
Sampling rate : 48.0 KHz
Bit depth : 16 bits
Compression mode : Lossy
Stream size : 133 MiB (4%)
Title : AVO (Михалев)
Language : Russian
Default : Yes
Forced : No
Audio #2
ID : 3
Format : AC-3
Format/Info : Audio Coding 3
Mode extension : CM (complete main)
Format settings, Endianness : Big
Codec ID : A_AC3
Duration : 1h 36mn
Bit rate mode : Constant
Bit rate : 192 Kbps
Channel(s) : 2 channels
Channel positions : Front: L R
Sampling rate : 48.0 KHz
Bit depth : 16 bits
Compression mode : Lossy
Stream size : 133 MiB (4%)
Title : Original
Language : English
Default : No
Forced : No
Text
ID : 4
Format : UTF-8
Codec ID : S_TEXT/UTF8
Codec ID/Info : UTF-8 Plain Text
Title : CC
Language : English
Default : No
Forced : No
Menu
00:00:00.000 : en:Chapter 1
00:09:57.000 : en:Chapter 2
00:19:37.000 : en:Chapter 3
00:26:44.000 : en:Chapter 4
00:34:16.000 : en:Chapter 5
00:44:16.000 : en:Chapter 6
00:57:10.000 : en:Chapter 7
01:10:07.000 : en:Chapter 8
10:24:19.000 : en:Chapter 9
01:33:31.000 : en:Chapter 10

Скриншот с названием фильма

Скриншоты

-ВНИМАНИЕ!!! ТОРРЕНТ ПЕРЕЗАЛИТ! [ 06-марта-2013 17:00 ]
Заменено видео добавлена оригинальная звуковая дорожка и субтитры !!! Просьба к скачавшим перекачать торрент!
Скачать

Скачать торрент!

Как скачивать? · Что такое торрент? · Рейтинг и ограничения

Сайт не распространяет и не хранит электронные версии произведений, а лишь предоставляет доступ к создаваемому пользователями каталогу ссылок на торрент-файлы, которые содержат только списки хеш-сумм

[Профиль] [ЛС]
Показать сообщения:    
Ответить на тему

Текущее время: Сегодня 21:57

Часовой пояс: GMT + 4



Вы не можете начинать темы
Вы не можете отвечать на сообщения
Вы не можете редактировать свои сообщения
Вы не можете удалять свои сообщения
Вы не можете голосовать в опросах
Вы не можете прикреплять файлы к сообщениям
Вы не можете скачивать файлы