Убей своих любимых / Kill Your Darlings (Джон Крокидас / John Krokidas ) [2013, США, драма, BDRip 720p] VO + Original (Eng) + Subs (Rus, Eng)

Ответить на тему
 
Автор Сообщение

user ®

Стаж: 7 лет 7 месяцев

Сообщений: 20008

Пост Пост: #1 от 08-Мар-2014 19:50

[Цитировать]

Убей своих любимых / Kill Your Darlings
Страна: США
Жанр: Драма
Год выпуска: 2013
Продолжительность: 01:42:44 (147791 frames)
Перевод: Одноголосый закадровый (В. Кошкин)
Субтитры 1: Русские, SRT (Нотабеноид)
Субтитры 2: English, SRT
Субтитры 3: English, IDX+SUB
Режиссер: Джон Крокидас / John Krokidas
В ролях: Дэниэл Рэдклифф, Дэйн ДеХаан, Бен Фостер, Майкл С. Холл, Джек Хьюстон, Дженнифер Джейсон Ли, Элизабет Олсен, Дэвид Кросс, Джон Каллам
Описание: Фильм повествует о годах молодости американских писателей-битников ХХ века Аллена Гинзберга и Джека Керуака...
Качество видео: BDRip 720p (Исходник: Kill.Your.Darlings.2013.1080p.BluRay.AVC.DTS-HD.MA.5.1-PublicHD)
Формат видео: MKV
Видео: x264; 1280х534 (1:2,35); 23,976 fps; 5000 kbps (ABR), 40719 kbps (Peak)
Аудио 1: AC3; 48 kHz; Stereo; 192 kbps | VO (Русский)
Аудио 2: DTS; 48 kHz; 5.1 (Front: L C R, Side: L R, LFE); 1509 kbps | Original (English)
СЕМПЛ

MediaInfo

Общее
Полное имя : Kill Your Darlings (2013) BDRip 720p K_I.mkv
Формат : Matroska
Версия формата : Version 4 / Version 2
Размер файла : 4,81 Гбайт
Продолжительность : 1 ч. 42 м.
Общий поток : 6706 Кбит/сек
Дата кодирования : UTC 2014-03-07 15:07:36
Программа кодирования : mkvmerge v6.8.0 ('Theme for Great Cities') 32bit built on Mar 2 2014 21:27:07
Библиотека кодирования : libebml v1.3.0 + libmatroska v1.4.1
Видео
Идентификатор : 1
Формат : AVC
Формат/Информация : Advanced Video Codec
Профиль формата : High@L4.1
Параметр CABAC формата : Да
Параметр ReFrames формата : 12 кадров
Идентификатор кодека : V_MPEG4/ISO/AVC
Продолжительность : 1 ч. 42 м.
Битрейт : 5000 Кбит/сек
Ширина : 1280 пикселей
Высота : 534 пикселя
Соотношение сторон : 2,40:1
Режим частоты кадров : Постоянный
Частота кадров : 23,976 кадра/сек
Цветовое пространство : YUV
Субдискретизация насыщенности : 4:2:0
Битовая глубина : 8 бит
Тип развёртки : Прогрессивная
Бит/(Пиксели*Кадры) : 0.305
Размер потока : 3,50 Гбайт (73%)
Библиотека кодирования : x264 core 138 r2358 9e941d1
Настройки программы : cabac=1 / ref=12 / deblock=1:-3:-3 / analyse=0x3:0x113 / me=umh / subme=11 / psy=1 / psy_rd=1.00:0.10 / mixed_ref=1 / me_range=48 / chroma_me=1 / trellis=2 / 8x8dct=1 / cqm=0 / deadzone=21,11 / fast_pskip=0 / chroma_qp_offset=-3 / threads=48 / lookahead_threads=4 / sliced_threads=0 / nr=0 / decimate=0 / interlaced=0 / bluray_compat=0 / constrained_intra=0 / bframes=8 / b_pyramid=2 / b_adapt=2 / b_bias=0 / direct=3 / weightb=1 / open_gop=0 / weightp=2 / keyint=360 / keyint_min=2 / scenecut=40 / intra_refresh=0 / rc_lookahead=60 / rc=2pass / mbtree=1 / bitrate=5000 / ratetol=1.0 / qcomp=0.70 / qpmin=0 / qpmax=69 / qpstep=4 / cplxblur=20.0 / qblur=0.5 / vbv_maxrate=50000 / vbv_bufsize=30000 / nal_hrd=none / ip_ratio=1.10 / aq=1:0.80
Default : Да
Forced : Нет
Аудио #1
Идентификатор : 2
Формат : AC-3
Формат/Информация : Audio Coding 3
Расширение режима : CM (complete main)
Параметр Endianness формата : Big
Идентификатор кодека : A_AC3
Продолжительность : 1 ч. 42 м.
Вид битрейта : Постоянный
Битрейт : 192 Кбит/сек
Каналы : 2 канала
Расположение каналов : Front: L R
Частота : 48,0 КГц
Битовая глубина : 16 бит
Метод сжатия : С потерями
Размер потока : 141 Мбайт (3%)
Заголовок : AC3
Язык : Russian
Default : Да
Forced : Нет
Аудио #2
Идентификатор : 3
Формат : DTS
Формат/Информация : Digital Theater Systems
Режим : 16
Параметр Endianness формата : Big
Идентификатор кодека : A_DTS
Продолжительность : 1 ч. 42 м.
Вид битрейта : Постоянный
Битрейт : 1509 Кбит/сек
Каналы : 6 каналов
Расположение каналов : Front: L C R, Side: L R, LFE
Частота : 48,0 КГц
Битовая глубина : 24 бит
Метод сжатия : С потерями
Размер потока : 1,08 Гбайт (23%)
Заголовок : DTS
Язык : English
Default : Нет
Forced : Нет
Текст #1
Идентификатор : 4
Формат : UTF-8
Идентификатор кодека : S_TEXT/UTF8
Идентификатор кодека/Информация : UTF-8 Plain Text
Заголовок : SubRip/SRT
Язык : Russian
Default : Нет
Forced : Нет
Текст #2
Идентификатор : 5
Формат : UTF-8
Идентификатор кодека : S_TEXT/UTF8
Идентификатор кодека/Информация : UTF-8 Plain Text
Заголовок : SubRip/SRT
Язык : English
Default : Нет
Forced : Нет
Текст #3
Идентификатор : 6
Формат : VobSub
Режим смешивания : zlib
Идентификатор кодека : S_VOBSUB
Идентификатор кодека/Информация : The same subtitle format used on DVDs
Заголовок : IDX+SUB
Язык : English
Default : Нет
Forced : Нет
Меню
00:00:00.000 : en:00:00:00.000
00:05:39.339 : en:00:05:39.339
00:09:11.926 : en:00:09:11.926
00:13:45.992 : en:00:13:45.992
00:23:31.118 : en:00:23:31.118
00:28:50.354 : en:00:28:50.354
00:36:31.272 : en:00:36:31.272
00:42:13.781 : en:00:42:13.781
00:45:57.838 : en:00:45:57.838
00:54:10.622 : en:00:54:10.622
00:57:41.583 : en:00:57:41.583
01:03:23.508 : en:01:03:23.508
01:08:16.509 : en:01:08:16.509
01:12:17.583 : en:01:12:17.583
01:20:11.807 : en:01:20:11.807
01:28:02.319 : en:01:28:02.319

Скриншот с названием фильма

Скриншоты



Пример субтитров

1
00:00:22,228 --> 00:00:27,228
Уличный фонарик там
двери освещал,
2
00:00:27,525 --> 00:00:32,525
Где я тебя, моя любовь,
однажды повстречал.
3
00:00:32,739 --> 00:00:37,739
Где ты призналась мне однажды
много лет спустя
4
00:00:38,244 --> 00:00:43,244
Что сердцем и душой
тогда ты выбрала меня.
5
00:00:43,500 --> 00:00:45,250
Есть то,
6
00:00:45,251 --> 00:00:47,920
что однажды полюбив,
7
00:00:47,921 --> 00:00:52,841
ты продолжаешь любить вечно.
8
00:00:52,842 --> 00:00:55,469
И, если ты пытаешься их отпустить,
9
00:00:55,470 --> 00:01:00,470
они просто, сделав круг, возвращаются обратно к тебе.
10
00:01:03,186 --> 00:01:08,186
Они становятся твоей частью.
11
00:01:11,027 --> 00:01:16,027
Или разрушают тебя.
12
00:01:19,869 --> 00:01:21,578
Ты не можешь это никому показывать.
13
00:01:21,579 --> 00:01:22,746
Тогда просто скажи правду, Лу.
14
00:01:22,747 --> 00:01:23,830
Тебя же там не было.
15
00:01:23,831 --> 00:01:28,831
Это твоя версия. Это выдумки.
16
00:01:30,463 --> 00:01:35,463
Ты тоже хотел, чтобы его не стало. Ты послал его ко мне.
17
00:01:36,886 --> 00:01:38,470
Ну пожалуйста! Ты убиваешь меня этим!
18
00:01:38,471 --> 00:01:39,680
Аллен!
19
00:01:41,140 --> 00:01:44,017
Нет. Аллен!
20
00:01:44,018 --> 00:01:45,644
Не надо. Нет!
21
00:01:45,645 --> 00:01:49,147
Не надо!
22
00:01:53,152 --> 00:01:54,695
Мировые новости.
23
00:01:54,696 --> 00:01:57,406
Американские бомбардировщики
были заняты в дневных боях сегодня.
24
00:01:57,407 --> 00:01:58,907
Наши Освободители
при поддержке истребителей
25
00:01:58,908 --> 00:02:00,325
продолжили наступление с воздуха
26
00:02:00,326 --> 00:02:03,328
еще одним ударом по немецким
береговым укреплениям во Франции.
27
00:02:03,329 --> 00:02:05,956
Грязь и слякоть препятствуют
русским войскам
28
00:02:05,957 --> 00:02:07,624
от Эстонии до Черного моря,
29
00:02:07,625 --> 00:02:11,003
но Германия сообщает о продвижении больших новых
сил Красной Армии к Румынии.
30
00:02:11,004 --> 00:02:12,754
Согласно информации из Германии,
пополнение из Турции
Скачать

Скачать торрент!

Как скачивать? · Что такое торрент? · Рейтинг и ограничения

Сайт не распространяет и не хранит электронные версии произведений, а лишь предоставляет доступ к создаваемому пользователями каталогу ссылок на торрент-файлы, которые содержат только списки хеш-сумм

[Профиль] [ЛС]
Показать сообщения:    
Ответить на тему

Текущее время: Сегодня 04:23

Часовой пояс: GMT + 4



Вы не можете начинать темы
Вы не можете отвечать на сообщения
Вы не можете редактировать свои сообщения
Вы не можете удалять свои сообщения
Вы не можете голосовать в опросах
Вы не можете прикреплять файлы к сообщениям
Вы не можете скачивать файлы