8 Марта / Восьмое марта (Андрей Максимков) [2000, Мелодрама, SATRip]

Ответить на тему
 
Автор Сообщение

user ®

Стаж: 7 лет 7 месяцев

Сообщений: 20008

Пост Пост: #1 от 08-Мар-2014 16:40

[Цитировать]

8 Марта / Восьмое марта
Жанр: Мелодрама
Год выпуска: 2000
Продолжительность: 1:30:27
Режиссёр: Андрей Максимков
В ролях: Лариса Удовиченко, Игорь Ливанов, Валерий Гаркалин, Михаил Светин, Нина Усатова, Ян Цапник
Описание: История внезапной и необыкновенной любви одинокой женщины. Преподавательница экономической географии в школе, которая накануне 8 марта вдруг понимает, что она - не мать, не жена и не подруга и поздравить ее некому. Конечно, есть в ее жизни мужчина, но он женат и забегает к ней от случая к случаю, время от времени, тайком от жены. Она устала от такой жизни, но вдруг появляется ОН - герой всей ее жизни в обличии простого на первый взгляд сантехника, пришедшего по заявке из ЖЭКа чинить кран, но это только на первый взгляд... Дальше начинаются события сколь необыкновенные, столь и неправдоподобные, но ведь в жизни всегда есть место для чудес.
Сэмпл: http://multi-up.com/957239
Качество видео: SATRip
Формат видео: AVI
Видео: XviD , 704x528 (1.33:1) , 25 fps , 2101 kbps avg
Аудио: AC3 , 48 kHz , 160.00 kbps avg , 2/0 (L,R) ch

MediaInfo

General
Complete name 8 марта 2000.avi
Format : AVI
Format/Info : Audio Video Interleave
File size : 1.43 GiB
Duration : 1h 30mn
Overall bit rate : 2 271 Kbps
Writing library : VirtualDub build 35390/release
Video
ID : 0
Format : MPEG-4 Visual
Format profile : Advanced Simple@L5
Format settings, BVOP : 1
Format settings, QPel : No
Format settings, GMC : No warppoints
Format settings, Matrix : Default (H.263)
Codec ID : XVID
Codec ID/Hint : XviD
Duration : 1h 30mn
Bit rate : 2 101 Kbps
Width : 704 pixels
Height : 528 pixels
Display aspect ratio : 4:3
Frame rate : 25.000 fps
Color space : YUV
Chroma subsampling : 4:2:0
Bit depth : 8 bits
Scan type : Progressive
Compression mode : Lossy
Bits/(Pixel*Frame) : 0.226
Stream size : 1.33 GiB (93%)
Writing library : XviD 64
Audio
ID : 1
Format : AC-3
Format/Info : Audio Coding 3
Mode extension : CM (complete main)
Format settings, Endianness : Big
Codec ID : 2000
Duration : 1h 30mn
Bit rate mode : Constant
Bit rate : 160 Kbps
Channel(s) : 2 channels
Channel positions : Front: L R
Sampling rate : 48.0 KHz
Bit depth : 16 bits
Compression mode : Lossy
Stream size : 104 MiB (7%)
Alignment : Aligned on interleaves
Interleave, duration : 40 ms (1.00 video frame)
Interleave, preload duration : 512 ms

Скриншот c названием фильма

Скриншоты

Скачать

Скачать торрент!

Как скачивать? · Что такое торрент? · Рейтинг и ограничения

Сайт не распространяет и не хранит электронные версии произведений, а лишь предоставляет доступ к создаваемому пользователями каталогу ссылок на торрент-файлы, которые содержат только списки хеш-сумм

[Профиль] [ЛС]
Показать сообщения:    
Ответить на тему

Текущее время: Сегодня 04:13

Часовой пояс: GMT + 4



Вы не можете начинать темы
Вы не можете отвечать на сообщения
Вы не можете редактировать свои сообщения
Вы не можете удалять свои сообщения
Вы не можете голосовать в опросах
Вы не можете прикреплять файлы к сообщениям
Вы не можете скачивать файлы