Помпеи: апокалипсис / Apocalypse Pompeii (Бен Демари / Ben Demaree) [2014, США, Приключения, фантастика, DVDRip] Sub Rus + Original Eng

Ответить на тему
 
Автор Сообщение

user ®

Стаж: 7 лет 7 месяцев

Сообщений: 20008

Пост Пост: #1 от 08-Мар-2014 02:00

[Цитировать]

Помпеи: апокалипсис / Apocalypse Pompeii
Страна: США
Жанр: Приключения, фантастика
Год выпуска: 2014
Продолжительность: 01:27:37
Перевод: Субтитры (М. Васильев)
Cубтитры: русские
Оригинальная аудиодорожка: английский
Режиссер: Бен Демари / Ben Demaree
В ролях: Эдриан Пол, Джорджина Бидл, Джон Рис - Дэвис, Джей Каслс
Описание: Группа туристов любуется живописными руинами Помпей, когда внезапно Везувий начинает извергаться, и история, имевшая место 2000 лет назад, грозит повториться. Но, к счастью для всех, поблизости оказывается начитанная студентка, которая знает абсолютно все про вулканы. Взяв на себя руководство группой и используя свои обширные познания, она намерена спасти путешественников.
Доп. информация: Телевизионный фильм, снятый по заказу канала Syfy
Приличная фантастика для семейного просмотра
Еще и поучительная. Просто видеоприложение к учебнику ОБЖ по теме "Что делать, если рядом начал извергаться вулкан"
По телевизионным меркам, спецэффекты на очень хорошем уровне
Если бы у главной героини еще в партнерах была говорящая собака, фильм мог бы смело показывать канал Дисней
Да, бюджет поменьше, чем у сериалов, где Спилберг в продюсерах, но видно, что народ старался.
В нише "подростковая фантастика" очень смотрибельно.
В паре сцен присутствуют вшитые английские титры. Не пугайтесь, это совершенно левые реплики, которые не несут никакой смысловой нагрузки.
Сэмпл: http://yadi.sk/d/oaSHWZUYK8AY5
Качество видео: DVDRip
Формат видео: AVI
Видео: 1782 Kbps, 720x400, (16:9), 23976 fps, MPEG - 4 XviD
Аудио: 448 Kbps, 48.0 KHz, 16 bits, 6 ch AC - 3
Формат субтитров: softsub (SRT)

MediaInfo

General
Complete name : C:\Users\Владелец\Desktop\Apocalypse.Pompeii.2014.DVDRip.XviD.AC3-EVO.avi
Format : AVI
Format/Info : Audio Video Interleave
File size : 1.37 GiB
Duration : 1h 27mn
Overall bit rate : 2 240 Kbps
Video
ID : 0
Format : MPEG-4 Visual
Format profile : Simple@L3
Format settings, BVOP : No
Format settings, QPel : No
Format settings, GMC : No warppoints
Format settings, Matrix : Default (H.263)
Codec ID : XVID
Codec ID/Hint : XviD
Duration : 1h 27mn
Source duration : 1h 27mn
Bit rate : 1 782 Kbps
Width : 720 pixels
Height : 400 pixels
Display aspect ratio : 16:9
Frame rate : 23.976 fps
Color space : YUV
Chroma subsampling : 4:2:0
Bit depth : 8 bits
Scan type : Progressive
Compression mode : Lossy
Bits/(Pixel*Frame) : 0.258
Stream size : 1.09 GiB (80%)
Writing library : XviD 1.1.2 (UTC 2006-11-01)
Audio
ID : 1
Format : AC-3
Format/Info : Audio Coding 3
Mode extension : CM (complete main)
Format settings, Endianness : Big
Codec ID : 2000
Duration : 1h 27mn
Bit rate mode : Constant
Bit rate : 448 Kbps
Channel(s) : 6 channels
Channel positions : Front: L C R, Side: L R, LFE
Sampling rate : 48.0 KHz
Bit depth : 16 bits
Compression mode : Lossy
Stream size : 281 MiB (20%)
Alignment : Aligned on interleaves
Interleave, duration : 32 ms (0.77 video frame)
Interleave, preload duration : 2432 ms

Скриншот c названием фильма

Скриншоты





Субтитры

1
00:01:05,498 --> 00:01:07,966
Мама, быстрее
2
00:01:07,968 --> 00:01:11,637
Не так быстро
3
00:01:12,806 --> 00:01:15,441
Моя малышка, какая ты большая
4
00:01:15,443 --> 00:01:20,012
Идем домой обедать
5
00:01:44,771 --> 00:01:47,706
Что это?
6
00:02:27,747 --> 00:02:31,416
- Как вы?
- Мы так напугались
7
00:02:31,418 --> 00:02:32,584
Залезайте
8
00:02:50,837 --> 00:02:51,670
Налево
9
00:02:53,773 --> 00:02:54,806
Быстрее
10
00:02:59,412 --> 00:03:00,946
Еще быстрее
11
00:03:11,925 --> 00:03:13,992
Мама!
12
00:04:03,576 --> 00:04:06,612
Не отставайте! Шевелитесь!
13
00:04:06,614 --> 00:04:08,914
Мне не сказали, что
это 3 этаж без лифта
14
00:04:08,916 --> 00:04:11,250
Но это добавляет шарма
15
00:04:11,252 --> 00:04:15,120
- Это называется "поехать налегке"?
- Я не могла решить, что оставить
16
00:04:15,122 --> 00:04:17,623
Целая неделя в Италии!
Ты понимаешь?
17
00:04:17,625 --> 00:04:20,158
- И что у тебя там?
- Да только книги
18
00:04:20,160 --> 00:04:22,361
И тебе все нужны?
19
00:04:22,363 --> 00:04:23,862
Конечно!
Я же увижу Помпеи
20
00:04:23,864 --> 00:04:25,697
Здесь так много материала для изучения
Скачать

Скачать торрент!

Как скачивать? · Что такое торрент? · Рейтинг и ограничения

Сайт не распространяет и не хранит электронные версии произведений, а лишь предоставляет доступ к создаваемому пользователями каталогу ссылок на торрент-файлы, которые содержат только списки хеш-сумм

[Профиль] [ЛС]
Показать сообщения:    
Ответить на тему

Текущее время: Сегодня 08:09

Часовой пояс: GMT + 4



Вы не можете начинать темы
Вы не можете отвечать на сообщения
Вы не можете редактировать свои сообщения
Вы не можете удалять свои сообщения
Вы не можете голосовать в опросах
Вы не можете прикреплять файлы к сообщениям
Вы не можете скачивать файлы