Последние дни на Марсе / The Last Days on Mars (Рори Робинсон / Ruairi Robinson) [2013, Великобритания, Ирландия, фантастика, триллер, BDRip 1080p] VO + Sub Eng, Rus + Original Eng

Ответить на тему
 
Автор Сообщение

user ®

Стаж: 7 лет 7 месяцев

Сообщений: 20008

Пост Пост: #1 от 07-Мар-2014 19:50

[Цитировать]

Последние дни на Марсе / The Last Days on Mars
Страна: Великобритания, Ирландия
Жанр: фантастика, триллер
Год выпуска: 2013
Продолжительность: 01:38:29
Перевод: Одноголосый закадровый [den904] - перевод на русский язык [Janetta]
Cубтитры: английские
Оригинальная аудиодорожка: английский
Режиссер: Рори Робинсон / Ruairi Robinson
В ролях: Лив Шрайбер, Ромола Гарай, Элиас Котеас, Оливия Уильямс, Джонни Харрис, Горан Костич, Том Каллен, Юсра Варсама
Описание: В последние дни пребывания на Марсе астронавты делают поразительное открытие: на собранных ими образцах грунта обнаружились микроскопические следы некой формы жизни. Вскоре землян должен забрать корабль, и оставшиеся часы они решают потратить на сбор дополнительных доказательств, для чего возвращаются в марсианскую долину.
Сэмпл: http://sendfile.su/950233
Тип релиза: BDRip 1080p
Контейнер: MKV
Видео: AVC 1920 x 816 (2.353) at 23.976 fps, 12,5 Mbps
Аудио 1: Russian Dolby Digital Audio / 5.1 / 48 kHz / 384 kbps
Аудио 2: English DTS / 5.1 / 48 kHz / 1509 kbps / 16-bit

MediaInfo

Общее
Уникальный идентификатор : 238048002816215075743127417910387290734 (0xB31660AFCD6DA4B4AFCC869759C4326E)
Полное имя : D:\The Last Days on Mars\The.Last.Days.on.Mars.2013.BDRip1080p..mkv
Формат : Matroska
Версия формата : Version 4 / Version 2
Размер файла : Гбайт
Продолжительность : 1 ч. 38 м.
Общий поток : 14,7 Мбит/сек
Название фильма : Release Group
Дата кодирования : UTC 2014-02-20 11:50:13
Программа кодирования : mkvmerge v6.7.0 ('Back to the Ground') 64bit built on Jan 8 2014 15:10:52
Библиотека кодирования : libebml v1.3.0 libmatroska v1.4.1
Видео
Идентификатор : 1
Формат : AVC
Формат/Информация : Advanced Video Codec
Профиль формата : High@L4.1
Параметр CABAC формата : Да
Параметр ReFrames формата : 5 кадров
Идентификатор кодека : V_MPEG4/ISO/AVC
Продолжительность : 1 ч. 38 м.
Битрейт : 12,5 Мбит/сек
Ширина : 1920 пикселей
Высота : 816 пикселей
Соотношение сторон : 2,35:1
Режим частоты кадров : Постоянный
Частота кадров : 23,976 кадра/сек
Цветовое пространство : YUV
Субдискретизация насыщенности : 4:2:0
Битовая глубина : 8 бит
Тип развёртки : Прогрессивная
Бит/(Пиксели*Кадры) : 0.333
Размер потока : 8,60 Гбайт (85%)
Заголовок : Release Group СПАМ
Библиотека кодирования : x264 core 140 r2377 40 929f149 tMod [8-bit@4:2:0 X86_64]
Настройки программы : cabac=1 / ref=5 / deblock=1:-3:-3 / analyse=0x3:0x113 / me=umh / subme=11 / psy=1 / fade_compensate=0.00 / psy_rd=1.10:0.00 / mixed_ref=1 / me_range=32 / chroma_me=1 / trellis=2 / 8x8dct=1 / cqm=0 / deadzone=21,11 / fast_pskip=0 / chroma_qp_offset=-2 / threads=18 / lookahead_threads=3 / sliced_threads=0 / nr=0 / decimate=0 / interlaced=0 / bluray_compat=0 / constrained_intra=0 / fgo=0 / bframes=8 / b_pyramid=2 / b_adapt=2 / b_bias=0 / direct=3 / weightb=1 / open_gop=0 / weightp=2 / keyint=240 / keyint_min=24 / scenecut=40 / intra_refresh=0 / rc=crf / mbtree=0 / crf=18.0000 / qcomp=0.70 / qpmin=0:0:0 / qpmax=69:69:69 / qpstep=4 / ip_ratio=1.20 / pb_ratio=1.20 / aq=4:0.90 / aq-sensitivity=10.00 / aq-factor=1.00:1.00:1.00 / aq2=0 / aq3=0
Язык : English
Default : Да
Forced : Нет
Аудио #1
Идентификатор : 2
Формат : AC-3
Формат/Информация : Audio Coding 3
Расширение режима : CM (complete main)
Параметр Endianness формата : Big
Идентификатор кодека : A_AC3
Продолжительность : 1 ч. 38 м.
Вид битрейта : Постоянный
Битрейт : 384 Кбит/сек
Каналы : 6 каналов
Расположение каналов : Front: L C R, Side: L R, LFE
Частота : 48,0 КГц
Битовая глубина : 16 бит
Метод сжатия : С потерями
Размер потока : 271 Мбайт (3%)
Заголовок : den904
Язык : Russian
Default : Да
Forced : Да
Аудио #2
Идентификатор : 3
Формат : DTS
Формат/Информация : Digital Theater Systems
Режим : 16
Параметр Endianness формата : Big
Идентификатор кодека : A_DTS
Продолжительность : 1 ч. 38 м.
Вид битрейта : Постоянный
Битрейт : 1509 Кбит/сек
Каналы : 6 каналов
Расположение каналов : Front: L C R, Side: L R, LFE
Частота : 48,0 КГц
Битовая глубина : 16 бит
Метод сжатия : С потерями
Размер потока : 1,04 Гбайт (10%)
Язык : English
Default : Нет
Forced : Нет
Текст #1
Идентификатор : 4
Формат : UTF-8
Идентификатор кодека : S_TEXT/UTF8
Идентификатор кодека/Информация : UTF-8 Plain Text
Заголовок : krilatkin
Язык : Russian
Default : Нет
Forced : Нет
Текст #2
Идентификатор : 5
Формат : UTF-8
Идентификатор кодека : S_TEXT/UTF8
Идентификатор кодека/Информация : UTF-8 Plain Text
Язык : English
Default : Нет
Forced : Нет
Меню
00:00:00.000 : en:00:00:00.000
00:07:46.383 : en:00:07:46.383
00:16:00.710 : en:00:16:00.710
00:23:27.364 : en:00:23:27.364
00:28:57.736 : en:00:28:57.736
00:39:09.013 : en:00:39:09.013
00:47:47.656 : en:00:47:47.656
00:53:25.202 : en:00:53:25.202
01:04:03.298 : en:01:04:03.298
01:11:38.169 : en:01:11:38.169
01:22:46.128 : en:01:22:46.128
01:32:18.867 : en:01:32:18.867

Скриншоты

Скачать

Скачать торрент!

Как скачивать? · Что такое торрент? · Рейтинг и ограничения

Сайт не распространяет и не хранит электронные версии произведений, а лишь предоставляет доступ к создаваемому пользователями каталогу ссылок на торрент-файлы, которые содержат только списки хеш-сумм

[Профиль] [ЛС]
Показать сообщения:    
Ответить на тему

Текущее время: Сегодня 09:52

Часовой пояс: GMT + 4



Вы не можете начинать темы
Вы не можете отвечать на сообщения
Вы не можете редактировать свои сообщения
Вы не можете удалять свои сообщения
Вы не можете голосовать в опросах
Вы не можете прикреплять файлы к сообщениям
Вы не можете скачивать файлы