Ты – самое дорогое, что у меня есть / You Are the Apple of My Eye (Гидденс Ко / Giddens Ko) [2011, Тайвань, мелодрама, комедия, HDRip] VO

Ответить на тему
 
Автор Сообщение

user ®

Стаж: 11 лет

Сообщений: 15151

Пост Пост: #1 от 07-Мар-2014 05:15

[Цитировать]

Ты – самое дорогое, что у меня есть / You Are the Apple of My Eye
Страна: Тайвань
Жанр: мелодрама, комедия
Год выпуска: 2011
Продолжительность: 01:49:34
Перевод: Одноголосый закадровый
Cубтитры: нет
Оригинальная аудиодорожка: нет
Режиссер: Гидденс Ко / Giddens Ko
В ролях: Кай Ко, Мишель Чен, Чжуан Хао Цюань (Оводог), Чан-Сянь Цай, Шэнюй Ен, Ваньвань, Кок Сиу Ман
Описание: Ко Чин-Тэн, хулиган, озорной задира и плохой ученик. Ему скучно учиться, но он всегда в эпицентре событий школьной жизни.
Он не желает взрослеть, заполняя свою жизнь подростковыми выходками. Все его друзья влюблены в отличницу Шэнь Цзяи.
Ему на все наплевать до того момента, как его посадили за парту впереди Шэнь Цзяи.
Под влиянием Шэнь Цзяи он начинает задумываться о том, кто он такой, и пытаться изменить свою жизнь.
Автобиографический фильм, снят по роману Гидденса Ко.
Сэмпл: http://webfile.ru/51cf4a469ff0b5c81ae035d2cb97ff7a
Качество видео: HDRip
Формат видео: AVI
Видео: XviD, 1413 Кбит/с, 704х304
Аудио: АС3, 6 ch, 448 Кбит/с

MediaInfo

Видео
Идентификатор : 0
Формат : MPEG-4 Visual
Профиль формата : Advanced Simple@L5
Параметр BVOP формата : 2
Параметр QPel формата : Нет
Параметр GMC формата : Без точки перехода
Параметр матрицы формата : Default (MPEG)
Режим смешивания : Сжатый битовый поток
Идентификатор кодека : XVID
Идентификатор кодека/Подсказка : XviD
Продолжительность : 1 ч. 49 м.
Битрейт : 1410 Кбит/сек
Ширина : 704 пикселя
Высота : 304 пикселя
Соотношение сторон : 2,35:1
Частота кадров : 23,976 кадра/сек
Цветовое пространство : YUV
Субдискретизация насыщенности : 4:2:0
Битовая глубина : 8 бит
Тип развёртки : Прогрессивная
Метод сжатия : С потерями
Бит/(Пиксели*Кадры) : 0.275
Размер потока : 1,08 Гбайт (76%)
Библиотека кодирования : XviD 1.2.1 (UTC 2008-12-04)
Аудио
Идентификатор : 1
Формат : AC-3
Формат/Информация : Audio Coding 3
Расширение режима : CM (complete main)
Параметр Endianness формата : Big
Идентификатор кодека : 2000
Продолжительность : 1 ч. 49 м.
Вид битрейта : Постоянный
Битрейт : 448 Кбит/сек
Каналы : 6 каналов
Расположение каналов : Front: L C R, Side: L R, LFE
Частота : 48,0 КГц
Битовая глубина : 16 бит
Метод сжатия : С потерями
Размер потока : 351 Мбайт (24%)
Выравнивание : Разделение по промежуткам
Продолжительность промежутка : 42 мс. (1,00 видеокадр)
Время предзагрузки промежутка : 500 мс.

Скриншоты

Скачать

Скачать торрент! Ты – самое дорогое, что у меня есть / You Are the Apple of My Eye (Гидденс Ко / Giddens Ko) [2011, Тайвань, мелодрама, комедия, HDRip] VO

Как скачивать? · Что такое торрент? · Рейтинг и ограничения

Сайт не распространяет и не хранит электронные версии произведений, а лишь предоставляет доступ к создаваемому пользователями каталогу ссылок на торрент-файлы, которые содержат только списки хеш-сумм

[Профиль] [ЛС]
Показать сообщения:    
Ответить на тему

Текущее время: Сегодня 09:43

Часовой пояс: GMT + 4



Вы не можете начинать темы
Вы не можете отвечать на сообщения
Вы не можете редактировать свои сообщения
Вы не можете удалять свои сообщения
Вы не можете голосовать в опросах
Вы не можете прикреплять файлы к сообщениям
Вы не можете скачивать файлы