Антарктика / Антарктическая повесть / История на Южном полюсе / Antarctica / South Pole Story / Nankyoku Monogatari (Корэёси Курахара / Koreyoshi Kurahara) [1983, Япония, Драма, приключения, BDRip] VO (Rider)

Ответить на тему
 
Автор Сообщение

user ®

Стаж: 11 лет

Сообщений: 15151

Пост Пост: #1 от 07-Мар-2014 02:05

[Цитировать]

Антарктика / Антарктическая повесть / История на Южном полюсеAntarctica / South Pole Story / Nankyoku Monogatari«Amidst the coldest, harshest surroundings on earth, this true story celebrates the mystery and the warmth of life»- Страна: Япония
Жанр: Драма, приключения
Год выпуска: 1983
Продолжительность: 02:23:09-Перевод: Одноголосый закадровый [Александр Райдер aka =Rider=]
Cубтитры: нет-Режиссер: Корэёси Курахара / Koreyoshi Kurahara-В ролях: Кэн Такакура, Цунэхико Ватасэ, Эйдзи Окада, Масако Нацумэ, Кэйко Огиномэ, Такэси Кусака, Сигэру Кояма, Со Ямамура, Дзюн Это, Коити Сато-Описание: В начале 1958 года на японской антарктической базе «Сёва» было принято решение отправиться на материковую возвышенность Боттнутен с целью максимально точного определения её местоположения, высоты, а также геологического исследования местности. Три японских исследователя: профессор Департамента геофизики Университета Хоккайдо Аки́ра Усио́да, метеоролог из Университета Киото О́ти Кэндзи́ро и опытный альпинист Одза́ки Та́йтё решили осуществить экспедицию используя 15 ездовых собак. Из-за трудностей похода и начавшейся портиться погоды они вернулись позже запланированного срока. В это время японское исследовательское судно со сменной группой вынуждено было отправить самолёт за первой группой исследователей и забрать только людей. Собак оставили с недельным запасом пищи на базе «Сёва» дожидаться сменной группы. Но погодные условия, льды и повреждения судна не дали этого сделать и обе группы отправились в Японию. Акира Усиода безуспешно пытался уговорить начальство разрешить ему вернуться и забрать собак.-Sample | IMDB | КиноПоиск-Тип релиза: BDRip [исх. ]BDRemux 1080p спасибоElkTheSenior
Формат видео: AVI-Видео: 704x384 (1.83:1), 23.976 fps, XviD build 50, 1328 kbps avg, 0.21 bit/pixel
Аудио: 48 kHz, MPEG Layer 3, 2 ch, 128.00 kbps avg [Russian_VO]-Релиз группы:

MediaInfo

General
Complete name : D:\Мои релизы\Antarctica_BDRip_RG_All_Films.avi
Format : AVI
Format/Info : Audio Video Interleave
File size : 1.47 GiB
Duration : 2h 23mn
Overall bit rate : 1 466 Kbps
Writing application : VirtualDubMod 1.5.10.3 | www.virtualdub-fr.org || (build 2550/release)
Writing library : VirtualDubMod build 2550/release
Video
ID : 0
Format : MPEG-4 Visual
Format profile : Advanced Simple@L5
Format settings, BVOP : Yes
Format settings, QPel : No
Format settings, GMC : No warppoints
Format settings, Matrix : Custom
Codec ID : XVID
Codec ID/Hint : XviD
Duration : 2h 23mn
Bit rate : 1 329 Kbps
Width : 704 pixels
Height : 384 pixels
Display aspect ratio : 16:9
Frame rate : 23.976 fps
Color space : YUV
Chroma subsampling : 4:2:0
Bit depth : 8 bits
Scan type : Progressive
Compression mode : Lossy
Bits/(Pixel*Frame) : 0.205
Stream size : 1.33 GiB (91%)
Writing library : XviD 1.2.1 (UTC 2008-12-04)
Audio
ID : 1
Format : MPEG Audio
Format version : Version 1
Format profile : Layer 3
Codec ID : 55
Codec ID/Hint : MP3
Duration : 2h 23mn
Bit rate mode : Constant
Bit rate : 128 Kbps
Channel(s) : 2 channels
Sampling rate : 48.0 KHz
Compression mode : Lossy
Stream size : 131 MiB (9%)
Alignment : Aligned on interleaves
Interleave, duration : 42 ms (1.00 video frame)
Interleave, preload duration : 504 ms
Writing library : LAME3.98r
Encoding settings : -m s -V 4 -q 2 -lowpass 17 -b 128

Скриншоты

Скачать

Скачать торрент! Антарктика / Антарктическая повесть / История на Южном полюсе / Antarctica / South Pole Story / Nankyoku Monogatari (Корэёси Курахара / Koreyoshi Kurahara) [1983, Япония, Драма, приключения, BDRip] VO (Rider)

Как скачивать? · Что такое торрент? · Рейтинг и ограничения

Сайт не распространяет и не хранит электронные версии произведений, а лишь предоставляет доступ к создаваемому пользователями каталогу ссылок на торрент-файлы, которые содержат только списки хеш-сумм

[Профиль] [ЛС]
Показать сообщения:    
Ответить на тему

Текущее время: Сегодня 16:18

Часовой пояс: GMT + 4



Вы не можете начинать темы
Вы не можете отвечать на сообщения
Вы не можете редактировать свои сообщения
Вы не можете удалять свои сообщения
Вы не можете голосовать в опросах
Вы не можете прикреплять файлы к сообщениям
Вы не можете скачивать файлы