Меч отмщения 4: Младенец в Коляске в Опасности / Lone Wolf and Cub: Baby in a Stroller in Danger / Kozure Okami: Oya no kokoro ko no kokoro (Буити Саито) [1972, Япония, драма, самурайский боевик, HDRip] DVO

Ответить на тему
 
Автор Сообщение

user ®

Стаж: 11 лет

Сообщений: 15151

Пост Пост: #1 от 07-Мар-2014 02:05

[Цитировать]

Меч отмщения 4: Младенец в Коляске в Опасности / Lone Wolf and Cub: Baby in a Stroller in Danger / Kozure Okami: Oya no kokoro ko no kokoro- -Страна: Япония
Жанр: драма, самурайский боевик
Год выпуска: 1972
Продолжительность: 01:20:57-Перевод: Любительский (двухголосый закадровый) [R.G. Orient Extreme]-Cубтитры: нет
Оригинальная аудиодорожка: нет
Режиссер: Буити Саито
В ролях: Томисабуро Вакаяма, Ёити Хаяси, Мичи Азума, Акихиро Томикава, Асао Койкэ, Хироши Танака, Тацуо Эндо, Син Кисида...
Описание: Его услуги стоят 500 золотых монет. Если он соглашается выполнить задание, участь его жертвы решена. Но новое задание Огами Итто очень опасно. Он должен убить Оюки, татуированную королеву боевых искусств.
Качество видео: HDRip
Формат видео: AVI
Видео: MPEG-4 Visual at 1154 Кбит/сек; 688 x 288 (2.389) at 23.976 fps
Аудио: MPEG Audio at 128 Кбит/сек; 2 канала, 48,0 КГц
Релиз от -

MediaInfo

Общее
Полное имя : D:\Фильмы\Азиатские\Меч отмщения 4\Sword of Vengeance 4.1972.HDRip.XviD.745MB. rip by [Assassin's Creed].avi
Формат : AVI
Формат/Информация : Audio Video Interleave
Размер файла : 748 Мбайт
Продолжительность : 1 ч. 20 м.
Общий поток : 1291 Кбит/сек
Программа кодирования : VirtualDubMod 1.5.10.2 (build 2540/release)
Библиотека кодирования : VirtualDubMod build 2540/release
Видео
Идентификатор : 0
Формат : MPEG-4 Visual
Профиль формата : Advanced Simple@L5
Параметр BVOP формата : 1
Параметр QPel формата : Нет
Параметр GMC формата : Без точки перехода
Параметр матрицы формата : Default (MPEG)
Идентификатор кодека : XVID
Идентификатор кодека/Подсказка : XviD
Продолжительность : 1 ч. 20 м.
Битрейт : 1154 Кбит/сек
Ширина : 688 пикселей
Высота : 288 пикселей
Соотношение сторон : 2,40:1
Частота кадров : 23,976 кадра/сек
Цветовое пространство : YUV
Субдискретизация насыщенности : 4:2:0
Битовая глубина : 8 бит
Тип развёртки : Прогрессивная
Метод сжатия : С потерями
Бит/(Пиксели*Кадры) : 0.243
Размер потока : 668 Мбайт (89%)
Библиотека кодирования : XviD 1.2.1 (UTC 2008-12-04)
Аудио
Идентификатор : 1
Формат : MPEG Audio
Версия формата : Version 1
Профиль формата : Layer 3
Идентификатор кодека : 55
Идентификатор кодека/Подсказка : MP3
Продолжительность : 1 ч. 20 м.
Вид битрейта : Постоянный
Битрейт : 128 Кбит/сек
Каналы : 2 канала
Частота : 48,0 КГц
Метод сжатия : С потерями
Размер потока : 74,1 Мбайт (10%)
Выравнивание : Соединение по промежуткам
Продолжительность промежутка : 42 мс. (1,00 видеокадр)
Время предзагрузки промежутка : 504 мс.
Библиотека кодирования : LAME3.99r
Настройки программы : -m s -V 4 -q 2 -lowpass 17 -b 128

Скриншот c названием фильма

Скриншоты

Скачать

Скачать торрент! Меч отмщения 4: Младенец в Коляске в Опасности / Lone Wolf and Cub: Baby in a Stroller in Danger / Kozure Okami: Oya no kokoro ko no kokoro (Буити Саито) [1972, Япония, драма, самурайский боевик, HDRip] DVO

Как скачивать? · Что такое торрент? · Рейтинг и ограничения

Сайт не распространяет и не хранит электронные версии произведений, а лишь предоставляет доступ к создаваемому пользователями каталогу ссылок на торрент-файлы, которые содержат только списки хеш-сумм

[Профиль] [ЛС]
Показать сообщения:    
Ответить на тему

Текущее время: Сегодня 12:32

Часовой пояс: GMT + 4



Вы не можете начинать темы
Вы не можете отвечать на сообщения
Вы не можете редактировать свои сообщения
Вы не можете удалять свои сообщения
Вы не можете голосовать в опросах
Вы не можете прикреплять файлы к сообщениям
Вы не можете скачивать файлы