Прерванный путь / Broken Trail (Уолтер Хилл / Walter Hill) [2006, США, Канада, Приключения, Вестерн, BDRip 1080p] MVO + Sub Eng, Ukr + Original Eng

Ответить на тему
 
Автор Сообщение

user ®

Стаж: 7 лет 7 месяцев

Сообщений: 20008

Пост Пост: #1 от 06-Мар-2014 11:30

[Цитировать]

-Прерванный путь / Broken Trail-- Страна: США, Канада
Жанр: Приключения, Вестерн
Год выпуска: 2006
Продолжительность: 03:04:07-Перевод: Профессиональный (многоголосый закадровый)
Cубтитры: английские, украинские
Оригинальная аудиодорожка: английский-Режиссер: Уолтер Хилл / Walter Hill-В ролях: Роберт Дювалл, Томас Хейден Чёрч, Грета Скакки, Гвендолин Ео, Крис Малки, Расти Швиммер, Скотт Купер, Валери Тиан, Кэролайн Чан, Оливия Ченг, Джейдин Вонг, Дональд Фонг, Джеймс Руссо, Тодд Аллен, Билл Бакса-Описание: Америка, 1898 год. Ковбои Принт Риттер и его племянник Том Харт - партнёры. Они перегоняют табун лошадей через страну, и неожиданно для себя, становятся защитой и опорой для 5 китайских девушек, которых собирались продать в бордель. Ковбои стараются заботиться о девушках, чтобы те смогли начать достойную новую жизнь, но по их следам уже гонятся шайка бандитов, имеющих собственные планы на девушек...-Тип релиза: BDRip 1080p
Контейнер: MKV
Видео: 1920x1080 at 23.976 fps, x264@L4.1, 2pass, ~15500 kbps avg
Аудио 1: Russian: 48 kHz, AC3, 3/2 (L,C,R,l,r) + LFE ch, ~640.00 kbps avg |Многоголосый закадровый, Blu-ray|
Аудио 2: English: 48 kHz/16-bit, DTS, 3/2 (L,C,R,l,r) + LFE ch, ~1536.00 kbps avg
Формат субтитров: softsub (SRT)- by Skazhutin-Сэмпл / ImDB / Кинопоиск

Награды

Золотой глобус, 2007 год:
• Номинации (3):
Лучший актёр мини-сериала или фильма на ТВ (Роберт Дювалл)
Лучший актёр второго плана мини-сериала или фильма на ТВ (Томас Хейден Чёрч)
Лучший мини-сериал или фильм на ТВ
Эмми, 2007 год:
• Победитель (3):
Лучший мини-сериал
Лучшая мужская роль в мини-сериале или телефильме (Роберт Дювалл)
Лучшая мужская роль второго плана в мини-сериале или телефильме (Томас Хейден Чёрч)
• Номинации (1):
Лучшая женская роль второго плана в мини-сериале или телефильме (Грета Скакки)
Премия Гильдии актеров, 2007 год:
• Номинации (3):
Лучшая мужская роль в телефильме или минисериале (Томас Хейден Чёрч)
Лучшая мужская роль в телефильме или минисериале (Роберт Дювалл)
Лучшая женская роль в телефильме или минисериале (Грета Скакки)

MediaInfo

Общее
Уникальный идентификатор : 216318707281486246834570825887773316212 (0xA2BD77B3E082E1B3812C545F2CDB5474)
Полное имя : Broken.Trail.2006.1080p.BluRay.Rus.Eng.HDCLUB-SkazhutinBroken.Trail.Part.One.2006.1080p.BluRay.Rus.Eng.HDCLUB-Skazhutin.mkv
Формат : Matroska
Версия формата : Version 4 / Version 2
Размер файла : 11,4 Гбайт
Продолжительность : 1 ч. 32 м.
Общий поток : 17,7 Мбит/сек
Название фильма : Broken Trail. Part One (2006) - Release for HDCLUB by Skazhutin
Дата кодирования : UTC 2013-04-30 12:19:46
Программа кодирования : mkvmerge v6.2.0 ('Promised Land') built on Apr 28 2013 12:22:01
Библиотека кодирования : libebml v1.3.0 + libmatroska v1.4.0
Attachment : Yes / Yes
Видео
Идентификатор : 1
Формат : AVC
Формат/Информация : Advanced Video Codec
Профиль формата : High@L4.1
Параметр CABAC формата : Да
Параметр ReFrames формата : 4 кадра
Идентификатор кодека : V_MPEG4/ISO/AVC
Продолжительность : 1 ч. 32 м.
Битрейт : 15,5 Мбит/сек
Ширина : 1920 пикселей
Высота : 1080 пикселей
Соотношение сторон : 16:9
Режим частоты кадров : Постоянный
Частота кадров : 23,976 кадра/сек
Цветовое пространство : YUV
Субдискретизация насыщенности : 4:2:0
Битовая глубина : 8 бит
Тип развёртки : Прогрессивная
Бит/(Пиксели*Кадры) : 0.312
Размер потока : 9,83 Гбайт (86%)
Заголовок : Release for HDCLUB
Библиотека кодирования : x264 core 130 r2273kMod b3065e6
Настройки программы : cabac=1 / ref=4 / deblock=1:-3:-3 / analyse=0x3:0x113 / me=umh / subme=11 / psy=1 / fade_compensate=0.00 / psy_rd=1.00:0.00 / mixed_ref=1 / me_range=48 / chroma_me=1 / trellis=2 / 8x8dct=1 / cqm=0 / deadzone=21,11 / fast_pskip=0 / chroma_qp_offset=-2 / threads=12 / lookahead_threads=2 / sliced_threads=0 / nr=0 / decimate=1 / interlaced=0 / bluray_compat=0 / constrained_intra=0 / bframes=8 / b_pyramid=2 / b_adapt=2 / b_bias=0 / direct=3 / weightb=1 / open_gop=0 / weightp=2 / keyint=250 / keyint_min=23 / scenecut=40 / intra_refresh=0 / rc_lookahead=120 / rc=2pass / mbtree=1 / bitrate=15500 / ratetol=1.0 / qcomp=0.80 / qpmin=0 / qpmax=69 / qpstep=4 / cplxblur=20.0 / qblur=0.5 / vbv_maxrate=50000 / vbv_bufsize=62500 / nal_hrd=none / ip_ratio=1.20 / aq=1:0.80
Язык : English
Default : Да
Forced : Нет
Основные цвета : BT.709
Характеристики трансфера : BT.709
Коэффициенты матрицы : BT.709
Аудио #1
Идентификатор : 2
Формат : AC-3
Формат/Информация : Audio Coding 3
Расширение режима : CM (complete main)
Параметр Endianness формата : Big
Идентификатор кодека : A_AC3
Продолжительность : 1 ч. 32 м.
Вид битрейта : Постоянный
Битрейт : 640 Кбит/сек
Каналы : 6 каналов
Расположение каналов : Front: L C R, Side: L R, LFE
Частота : 48,0 КГц
Битовая глубина : 16 бит
Метод сжатия : С потерями
Размер потока : 425 Мбайт (4%)
Заголовок : AC3 5.1 @ 640 kbps - MVO, Blu-ray
Язык : Russian
Default : Да
Forced : Нет
Аудио #2
Идентификатор : 3
Формат : DTS
Формат/Информация : Digital Theater Systems
Режим : 16
Параметр Endianness формата : Big
Идентификатор кодека : A_DTS
Продолжительность : 1 ч. 32 м.
Вид битрейта : Постоянный
Битрейт : 1510 Кбит/сек
Каналы : 6 каналов
Расположение каналов : Front: L C R, Side: L R, LFE
Частота : 48,0 КГц
Битовая глубина : 16 бит
Метод сжатия : С потерями
Размер потока : 1003 Мбайт (9%)
Заголовок : DTS 5.1 @ 1536 kbps
Язык : English
Default : Нет
Forced : Нет
Текст #1
Идентификатор : 4
Формат : UTF-8
Идентификатор кодека : S_TEXT/UTF8
Идентификатор кодека/Информация : UTF-8 Plain Text
Язык : English
Default : Нет
Forced : Нет
Текст #2
Идентификатор : 5
Формат : UTF-8
Идентификатор кодека : S_TEXT/UTF8
Идентификатор кодека/Информация : UTF-8 Plain Text
Язык : Ukrainian
Default : Нет
Forced : Нет
Меню
00:00:00.000 : en:Chapter 1
00:00:21.730 : en:Chapter 2
00:04:05.160 : en:Chapter 3
00:17:57.492 : en:Chapter 4
00:32:37.579 : en:Chapter 5
00:42:57.657 : en:Chapter 6
00:51:31.088 : en:Chapter 7
00:59:28.398 : en:Chapter 8
01:10:49.078 : en:Chapter 9
01:18:25.701 : en:Chapter 10
Общее
Уникальный идентификатор : 206390829761302272103103574643196792992 (0x9B456D8CB791AB0583F6322A90B790A0)
Полное имя : Broken.Trail.2006.1080p.BluRay.Rus.Eng.HDCLUB-SkazhutinBroken.Trail.Part.Two.2006.1080p.BluRay.Rus.Eng.HDCLUB-Skazhutin.mkv
Формат : Matroska
Версия формата : Version 4 / Version 2
Размер файла : 11,3 Гбайт
Продолжительность : 1 ч. 31 м.
Общий поток : 17,7 Мбит/сек
Название фильма : Broken Trail. Part Two (2006) - Release for HDCLUB by Skazhutin
Дата кодирования : UTC 2013-04-30 12:30:05
Программа кодирования : mkvmerge v6.2.0 ('Promised Land') built on Apr 28 2013 12:22:01
Библиотека кодирования : libebml v1.3.0 + libmatroska v1.4.0
Attachment : Yes / Yes
Видео
Идентификатор : 1
Формат : AVC
Формат/Информация : Advanced Video Codec
Профиль формата : High@L4.1
Параметр CABAC формата : Да
Параметр ReFrames формата : 4 кадра
Идентификатор кодека : V_MPEG4/ISO/AVC
Продолжительность : 1 ч. 31 м.
Битрейт : 15,5 Мбит/сек
Ширина : 1920 пикселей
Высота : 1080 пикселей
Соотношение сторон : 16:9
Режим частоты кадров : Постоянный
Частота кадров : 23,976 кадра/сек
Цветовое пространство : YUV
Субдискретизация насыщенности : 4:2:0
Битовая глубина : 8 бит
Тип развёртки : Прогрессивная
Бит/(Пиксели*Кадры) : 0.312
Размер потока : 9,66 Гбайт (86%)
Заголовок : Release for HDCLUB
Библиотека кодирования : x264 core 130 r2273kMod b3065e6
Настройки программы : cabac=1 / ref=4 / deblock=1:-3:-3 / analyse=0x3:0x113 / me=umh / subme=11 / psy=1 / fade_compensate=0.00 / psy_rd=1.00:0.00 / mixed_ref=1 / me_range=48 / chroma_me=1 / trellis=2 / 8x8dct=1 / cqm=0 / deadzone=21,11 / fast_pskip=0 / chroma_qp_offset=-2 / threads=12 / lookahead_threads=2 / sliced_threads=0 / nr=0 / decimate=1 / interlaced=0 / bluray_compat=0 / constrained_intra=0 / bframes=8 / b_pyramid=2 / b_adapt=2 / b_bias=0 / direct=3 / weightb=1 / open_gop=0 / weightp=2 / keyint=250 / keyint_min=23 / scenecut=40 / intra_refresh=0 / rc_lookahead=120 / rc=2pass / mbtree=1 / bitrate=15500 / ratetol=1.0 / qcomp=0.80 / qpmin=0 / qpmax=69 / qpstep=4 / cplxblur=20.0 / qblur=0.5 / vbv_maxrate=50000 / vbv_bufsize=62500 / nal_hrd=none / ip_ratio=1.20 / aq=1:0.80
Язык : English
Default : Да
Forced : Нет
Основные цвета : BT.709
Характеристики трансфера : BT.709
Коэффициенты матрицы : BT.709
Аудио #1
Идентификатор : 2
Формат : AC-3
Формат/Информация : Audio Coding 3
Расширение режима : CM (complete main)
Параметр Endianness формата : Big
Идентификатор кодека : A_AC3
Продолжительность : 1 ч. 31 м.
Вид битрейта : Постоянный
Битрейт : 640 Кбит/сек
Каналы : 6 каналов
Расположение каналов : Front: L C R, Side: L R, LFE
Частота : 48,0 КГц
Битовая глубина : 16 бит
Метод сжатия : С потерями
Размер потока : 418 Мбайт (4%)
Заголовок : AC3 5.1 @ 640 kbps - MVO, Blu-ray
Язык : Russian
Default : Да
Forced : Нет
Аудио #2
Идентификатор : 3
Формат : DTS
Формат/Информация : Digital Theater Systems
Режим : 16
Параметр Endianness формата : Big
Идентификатор кодека : A_DTS
Продолжительность : 1 ч. 31 м.
Вид битрейта : Постоянный
Битрейт : 1510 Кбит/сек
Каналы : 6 каналов
Расположение каналов : Front: L C R, Side: L R, LFE
Частота : 48,0 КГц
Битовая глубина : 16 бит
Метод сжатия : С потерями
Размер потока : 985 Мбайт (9%)
Заголовок : DTS 5.1 @ 1536 kbps
Язык : English
Default : Нет
Forced : Нет
Текст #1
Идентификатор : 4
Формат : UTF-8
Идентификатор кодека : S_TEXT/UTF8
Идентификатор кодека/Информация : UTF-8 Plain Text
Язык : English
Default : Нет
Forced : Нет
Текст #2
Идентификатор : 5
Формат : UTF-8
Идентификатор кодека : S_TEXT/UTF8
Идентификатор кодека/Информация : UTF-8 Plain Text
Язык : Ukrainian
Default : Нет
Forced : Нет
Меню
00:00:00.000 : en:Chapter 1
00:00:21.479 : en:Chapter 2
00:03:51.022 : en:Chapter 3
00:19:22.243 : en:Chapter 4
00:32:44.837 : en:Chapter 5
00:41:45.960 : en:Chapter 6
00:55:54.726 : en:Chapter 7
01:04:56.934 : en:Chapter 8
01:12:20.419 : en:Chapter 9
01:21:20.959 : en:Chapter 10

Скриншоты

Скачать

Скачать торрент!

Как скачивать? · Что такое торрент? · Рейтинг и ограничения

Сайт не распространяет и не хранит электронные версии произведений, а лишь предоставляет доступ к создаваемому пользователями каталогу ссылок на торрент-файлы, которые содержат только списки хеш-сумм

[Профиль] [ЛС]
Показать сообщения:    
Ответить на тему

Текущее время: Сегодня 04:06

Часовой пояс: GMT + 4



Вы не можете начинать темы
Вы не можете отвечать на сообщения
Вы не можете редактировать свои сообщения
Вы не можете удалять свои сообщения
Вы не можете голосовать в опросах
Вы не можете прикреплять файлы к сообщениям
Вы не можете скачивать файлы