Когти / Тень / Panjaa (Вишну Вардхан / Vishnuvardhan) [2011, Индия, Боевик, триллер, HDRip] MVO (Red Media)

Ответить на тему
 
Автор Сообщение

user ®

Стаж: 12 лет

Сообщений: 15092

Пост Пост: #1 от 05-Мар-2014 03:20

[Цитировать]

Когти / Тень / Panjaa
-Страна: Индия
Жанр: Боевик, драма, триллер
Год выпуска: 2011
Продолжительность: 02:37:21-Перевод: Профессиональный (многоголосый закадровый) - Red Media [Индия ТВ]
Субтитры: Нет--Режиссер: Вишну Вардхан / Vishnuvardhan-В ролях: Паван Кальян, Сара Джейн Диас, Анджали Лавания, Джеки Шрофф, Брахманандам, Адиви Сеш, Суббараджу--Описание: Сильные мира сего - политики, бизнесмены, чиновники. У них есть деньги и власть, но всех их контролирует Багаван (Джеки Шрофф), именно к нему все они идут на поклон. И хотя его положение привлекает тех, кто не прочь сбросить короля с его трона, но у каждого человека есть тень. А у тени Багавана, у его силы, есть имя - Джай (Паван Кальян). Тень безоговорочно предана своему хозяину, а это означает, что Багаван недосягаем. После 8 лет отсутствия в Индию возвращается сын Багавана - Мунна. И отец просит Джая стать такой же тенью для его сына, какой он до сих пор был для Багавана. Но огромная власть, деньги его отца и безграничная вседозволенность сделали из Мунны садиста и наркомана, с полным отсутствием тормозов. Захочет ли отец посмотреть правде в глаза и осознать в кого превратился его сын? Что случится, если тень покинет своего хозяина? Не окажется ли, что могущественный человек - это колос на глиняных ногах? Кто выйдет победителем из противостояния тени и его хозяина? И какова цена победы? (с) ssshahi-Доп. информация: Фильм снят на языке телугу.-- | --Качество видео: HDRip (исх. BDRip 720p)
Формат видео: AVI-Видео: XviD, 688x288, 24 fps, 1191 Kbps
Аудио: MP3, 48 KHz, 2ch, 128 Kbps--Сэмпл / Sample--Риппер, сведение звука: soso4eg-- --

Скриншот с названием:


-

Скриншоты:


-

MediaInfo:

Общее
Полное имя : D:\[Релизы]\Ten.2011.HDRip.XviD-soso4eg.avi
Формат : AVI
Формат/Информация : Audio Video Interleave
Размер файла : 1,46 Гбайт
Продолжительность : 2 ч. 37 м.
Общий поток : 1328 Кбит/сек
Программа кодирования : VirtualDubMod 1.5.10.3 | www.virtualdub-fr.org || (build 2550/release)
Видео
Идентификатор : 0
Формат : MPEG-4 Visual
Профиль формата : Advanced Simple@L5
Параметр BVOP формата : 1
Параметр QPel формата : Нет
Параметр GMC формата : Без точки перехода
Параметр матрицы формата : Default (H.263)
Идентификатор кодека : XVID
Идентификатор кодека/Подсказка : XviD
Продолжительность : 2 ч. 37 м.
Битрейт : 1191 Кбит/сек
Ширина : 688 пикселей
Высота : 288 пикселей
Соотношение сторон : 2,40:1
Частота кадров : 24,000 кадра/сек
Цветовое пространство : YUV
Субдискретизация насыщенности : 4:2:0
Битовая глубина : 8 бит
Тип развёртки : Прогрессивная
Метод сжатия : С потерями
Бит/(Пиксели*Кадры) : 0.250
Размер потока : 1,31 Гбайт (90%)
Библиотека кодирования : XviD 1.2.1 (UTC 2008-12-04)
Аудио
Идентификатор : 1
Формат : MPEG Audio
Версия формата : Version 1
Профиль формата : Layer 3
Режим : Joint stereo
Расширение режима : MS Stereo
Идентификатор кодека : 55
Идентификатор кодека/Подсказка : MP3
Продолжительность : 2 ч. 37 м.
Вид битрейта : Постоянный
Битрейт : 128 Кбит/сек
Каналы : 2 канала
Частота : 48,0 КГц
Метод сжатия : С потерями
Размер потока : 144 Мбайт (10%)
Выравнивание : Соединение по промежуткам
Продолжительность промежутка : 42 мс. (1,00 видеокадр)
Время предзагрузки промежутка : 504 мс.
Библиотека кодирования : LAME3.90.3ЄЄЄЄЄЄЄЄЄЄ
-
Скачать

Скачать торрент! Когти / Тень / Panjaa (Вишну Вардхан / Vishnuvardhan) [2011, Индия, Боевик, триллер, HDRip] MVO (Red Media)

Как скачивать? · Что такое торрент? · Рейтинг и ограничения

Сайт не распространяет и не хранит электронные версии произведений, а лишь предоставляет доступ к создаваемому пользователями каталогу ссылок на торрент-файлы, которые содержат только списки хеш-сумм

[Профиль] [ЛС]
Показать сообщения:    
Ответить на тему

Текущее время: Сегодня 11:51

Часовой пояс: GMT + 4



Вы не можете начинать темы
Вы не можете отвечать на сообщения
Вы не можете редактировать свои сообщения
Вы не можете удалять свои сообщения
Вы не можете голосовать в опросах
Вы не можете прикреплять файлы к сообщениям
Вы не можете скачивать файлы