Меч отмщения 4: Младенец в Коляске в Опасности / Lone Wolf and Cub: Baby in a Stroller in Danger / Kozure Okami: Oya no kokoro ko no kokoro (Буити Саито / Buichi Saito) [1972, Япония, драма, самурайский боевик, HDRip] AVO + DVO + Original + Sub

Ответить на тему
 
Автор Сообщение

user ®

Стаж: 11 лет

Сообщений: 15151

Пост Пост: #1 от 05-Мар-2014 00:10

[Цитировать]

Меч отмщения 4: Младенец в Коляске в Опасности / Lone Wolf and Cub: Baby in a Stroller in Danger / Kozure Okami: Oya no kokoro ko no kokoro- -Страна: Япония
Жанр: драма, самурайский боевик
Год выпуска: 1972
Продолжительность: 01:20:57-Перевод: Авторский (одноголосый закадровый) [Сергей Кузнецов]
Перевод : Любительский (двухголосый закадровый) [R.G. Orient Extreme]-Cубтитры: русские (Keygeneral, Tora Asakura) английские [отдельно]
Оригинальная аудиодорожка: японский
Режиссер: Буити Саито
В ролях: Томисабуро Вакаяма, Ёити Хаяси, Мичи Азума, Акихиро Томикава, Асао Койкэ, Хироши Танака, Тацуо Эндо, Син Кисида...
Описание: Его услуги стоят 500 золотых монет. Если он соглашается выполнить задание, участь его жертвы решена. Но новое задание Огами Итто очень опасно. Он должен убить Оюки, татуированную королеву боевых искусств.
Качество видео: HDRip
Формат видео: AVI
Видео: MPEG-4 Visual at 1993 Кбит/сек; 720 x 304 (2.368) at 23.976 fps
Аудио: AC-3 at 192 Кбит/сек; 2 канала, 48,0 КГц [AVO]
Аудио: AC-3 at 192 Кбит/сек; 2 канала, 48,0 КГц [DVO]
Аудио: AC-3 at 224 Кбит/сек; 2 канала, 48,0 КГц [Jap]
Релиз от -

MediaInfo

Общее
Полное имя : D:\Фильмы\Азиатские\Меч отмщения 4\Sword of Vengeance 4.1972.HDRip.XviD.1400MB. rip by [Assassin's Creed]\Sword of Vengeance 4 .Tora Asaskura.srt
Формат : SubRip
Размер файла : 55,1 Кбайт
Текст
Формат : SubRip
Метод сжатия : Без потерь
Общее
Полное имя : D:\Фильмы\Азиатские\Меч отмщения 4\Sword of Vengeance 4.1972.HDRip.XviD.1400MB. rip by [Assassin's Creed]\Sword of Vengeance 4 .Кeygeneral.srt
Формат : SubRip
Размер файла : 47,2 Кбайт
Текст
Формат : SubRip
Метод сжатия : Без потерь
Общее
Полное имя : D:\Фильмы\Азиатские\Меч отмщения 4\Sword of Vengeance 4.1972.HDRip.XviD.1400MB. rip by [Assassin's Creed]\Sword of Vengeance 4.1972.HDRip.XviD.1400MB. rip by [Assassin's Creed].avi
Формат : AVI
Формат/Информация : Audio Video Interleave
Размер файла : 1,48 Гбайт
Продолжительность : 1 ч. 20 м.
Общий поток : 2620 Кбит/сек
Программа кодирования : VirtualDubMod 1.5.10.2 (build 2540/release)
Библиотека кодирования : VirtualDubMod build 2540/release
Видео
Идентификатор : 0
Формат : MPEG-4 Visual
Профиль формата : Advanced Simple@L5
Параметр BVOP формата : 1
Параметр QPel формата : Нет
Параметр GMC формата : Без точки перехода
Параметр матрицы формата : Default (MPEG)
Идентификатор кодека : XVID
Идентификатор кодека/Подсказка : XviD
Продолжительность : 1 ч. 20 м.
Битрейт : 1993 Кбит/сек
Ширина : 720 пикселей
Высота : 304 пикселя
Соотношение сторон : 2,35:1
Частота кадров : 23,976 кадра/сек
Цветовое пространство : YUV
Субдискретизация насыщенности : 4:2:0
Битовая глубина : 8 бит
Тип развёртки : Прогрессивная
Метод сжатия : С потерями
Бит/(Пиксели*Кадры) : 0.380
Размер потока : 1,13 Гбайт (76%)
Библиотека кодирования : XviD 1.2.1 (UTC 2008-12-04)
Аудио #1
Идентификатор : 1
Формат : AC-3
Формат/Информация : Audio Coding 3
Расширение режима : CM (complete main)
Параметр Endianness формата : Big
Идентификатор кодека : 2000
Продолжительность : 1 ч. 20 м.
Вид битрейта : Постоянный
Битрейт : 192 Кбит/сек
Каналы : 2 канала
Расположение каналов : Front: L R
Частота : 48,0 КГц
Битовая глубина : 16 бит
Метод сжатия : С потерями
Размер потока : 111 Мбайт (7%)
Выравнивание : Разделение по промежуткам
Продолжительность промежутка : 42 мс. (1,00 видеокадр)
Время предзагрузки промежутка : 500 мс.
Аудио #2
Идентификатор : 2
Формат : AC-3
Формат/Информация : Audio Coding 3
Расширение режима : CM (complete main)
Параметр Endianness формата : Big
Идентификатор кодека : 2000
Продолжительность : 1 ч. 20 м.
Вид битрейта : Постоянный
Битрейт : 192 Кбит/сек
Каналы : 2 канала
Расположение каналов : Front: L R
Частота : 48,0 КГц
Битовая глубина : 16 бит
Метод сжатия : С потерями
Размер потока : 111 Мбайт (7%)
Выравнивание : Разделение по промежуткам
Продолжительность промежутка : 42 мс. (1,00 видеокадр)
Время предзагрузки промежутка : 500 мс.
Аудио #3
Идентификатор : 3
Формат : AC-3
Формат/Информация : Audio Coding 3
Расширение режима : CM (complete main)
Параметр Endianness формата : Big
Идентификатор кодека : 2000
Продолжительность : 1 ч. 20 м.
Вид битрейта : Постоянный
Битрейт : 224 Кбит/сек
Каналы : 2 канала
Расположение каналов : Front: L R
Частота : 48,0 КГц
Битовая глубина : 16 бит
Метод сжатия : С потерями
Размер потока : 130 Мбайт (9%)
Выравнивание : Разделение по промежуткам
Продолжительность промежутка : 42 мс. (1,00 видеокадр)
Время предзагрузки промежутка : 500 мс.
Общее
Полное имя : D:\Фильмы\Азиатские\Меч отмщения 4\Sword of Vengeance 4.1972.HDRip.XviD.1400MB. rip by [Assassin's Creed]\Sword of Vengeance 4.Eng.srt
Формат : SubRip
Размер файла : 42,8 Кбайт
Текст
Формат : SubRip
Метод сжатия : Без потерь

Скриншот c названием фильма

Скриншоты

Скачать

Скачать торрент! Меч отмщения 4: Младенец в Коляске в Опасности / Lone Wolf and Cub: Baby in a Stroller in Danger / Kozure Okami: Oya no kokoro ko no kokoro (Буити Саито / Buichi Saito) [1972, Япония, драма, самурайский боевик, HDRip] AVO + DVO + Original + Sub

Как скачивать? · Что такое торрент? · Рейтинг и ограничения

Сайт не распространяет и не хранит электронные версии произведений, а лишь предоставляет доступ к создаваемому пользователями каталогу ссылок на торрент-файлы, которые содержат только списки хеш-сумм

[Профиль] [ЛС]
Показать сообщения:    
Ответить на тему

Текущее время: Сегодня 07:31

Часовой пояс: GMT + 4



Вы не можете начинать темы
Вы не можете отвечать на сообщения
Вы не можете редактировать свои сообщения
Вы не можете удалять свои сообщения
Вы не можете голосовать в опросах
Вы не можете прикреплять файлы к сообщениям
Вы не можете скачивать файлы