Фаталь / Fatal (Микаэль Юн / Michael Youn) [2010, Франция, комедия, музыка, BDRip 720p] VO + Original Fre + Sub Rus

Ответить на тему
 
Автор Сообщение

user ®

Стаж: 7 лет 7 месяцев

Сообщений: 20008

Пост Пост: #1 от 05-Мар-2014 00:10

[Цитировать]

Фаталь / Fatal-Страна: Франция
Жанр: комедия, музыка
Год выпуска: 2010
Продолжительность: 01:42:28
Перевод: Одноголосый закадровый (Zelyoniy)
Cубтитры: русские
Оригинальная аудиодорожка: французский-Режиссер: Микаэль Юн / Michael Youn
В ролях: Микаэль Юн, Стефан Руссо, Изабель Фунаро, Венсан Дезанья, Фабрис Эбуе, Армель, Жером Ле Баннер, Эри Абиттан, Йинь-Тунь Чу, Реим Керичи, Жан Бенгиги, Катрин Аллегре-Описание: Гангста-рэппер Fatal Bazooka мегапопулярен во Франции (и во всём остальном мире) и является настоящей супер-звездой. Но однажды певец "электро-органического поп" Крис Прольс, нагло украл его популярность и занял драгоценное место "Numero Uno" на церемонии "Music Awards Music." Вдобавок выясняется, что вырос Фаталь вовсе не в гетто...
Расстроенный Фаталь сильно перебравши, устраивает скандал прямо в зале, что приводит к завершению карьеры звезды, бойкоту прессы, разорению и разводу. Всеми забытый Фаталь вынужден вернуться в свою родную деревню в Савойе и попытаться стать пастухом, как и его покойный отец.- Дополнительно: Большое спасибо за озвучивание Zelyoniy, перевод WapeR_PauL, медиа поддержка ZVNV-Качество видео: BDRip 720p
Формат видео: MKV
Видео: x.264D, 1280x544, 4371 Kbps, 24 fps
Аудио 1: AC3, 640 Kbps, 5.1 ch, 48000 Hz - VO
Аудио 2: DTS, 1510 Kbps, 5.1 ch, 48000 Hz - French
Cубтитры: SRT - русские
-

Скриншоты


Резервные скриншоты



-

MediaInfo

Format : Matroska
Format version : Version 4 / Version 2
File size : 4.85 GiB
Duration : 1h 46mn
Overall bit rate : 6 523 Kbps
Movie name : Фаталь / Fatal (2010) BDRip 720p by RG Torrents.ru
Encoded date : UTC 2014-03-03 20:40:52
Writing application : mkvmerge v6.7.0 ('Back to the Ground') 32bit built on Feb 3 2014 20:54:50
Writing library : libebml v1.3.0 + libmatroska v1.4.1
Attachment : Yes
Video
ID : 1
Format : AVC
Format/Info : Advanced Video Codec
Format profile : High@L4.1
Format settings, CABAC : Yes
Format settings, ReFrames : 5 frames
Codec ID : V_MPEG4/ISO/AVC
Duration : 1h 46mn
Bit rate : 4 371 Kbps
Width : 1 280 pixels
Height : 544 pixels
Display aspect ratio : 2.35:1
Frame rate mode : Constant
Frame rate : 24.000 fps
Color space : YUV
Chroma subsampling : 4:2:0
Bit depth : 8 bits
Scan type : Progressive
Bits/(Pixel*Frame) : 0.262
Stream size : 3.16 GiB (65%)
Writing library : x264 core 107 r1772 c9dad9e
Encoding settings : cabac=1 / ref=5 / deblock=1:0:0 / analyse=0x3:0x2 / me=umh / subme=7 / psy=1 / psy_rd=1.00:0.00 / mixed_ref=1 / me_range=16 / chroma_me=1 / trellis=1 / 8x8dct=1 / cqm=0 / deadzone=21,11 / fast_pskip=0 / chroma_qp_offset=-2 / threads=12 / sliced_threads=0 / nr=0 / decimate=1 / interlaced=0 / constrained_intra=0 / bframes=3 / b_pyramid=2 / b_adapt=1 / b_bias=0 / direct=3 / weightb=1 / open_gop=0 / weightp=0 / keyint=250 / keyint_min=24 / scenecut=40 / intra_refresh=0 / rc=2pass / mbtree=0 / bitrate=4371 / ratetol=1.0 / qcomp=0.60 / qpmin=10 / qpmax=51 / qpstep=4 / cplxblur=20.0 / qblur=0.5 / ip_ratio=1.40 / pb_ratio=1.30 / aq=1:1.00
Language : French
Default : Yes
Forced : No
Audio #1
ID : 2
Format : AC-3
Format/Info : Audio Coding 3
Mode extension : CM (complete main)
Format settings, Endianness : Big
Codec ID : A_AC3
Duration : 1h 46mn
Bit rate mode : Constant
Bit rate : 640 Kbps
Channel(s) : 6 channels
Channel positions : Front: L C R, Side: L R, LFE
Sampling rate : 48.0 KHz
Bit depth : 16 bits
Compression mode : Lossy
Stream size : 487 MiB (10%)
Title : AC3 5.1 -VO (Zelyoniy)
Language : Russian
Default : Yes
Forced : No
Audio #2
ID : 3
Format : DTS
Format/Info : Digital Theater Systems
Mode : 16
Format settings, Endianness : Big
Codec ID : A_DTS
Duration : 1h 46mn
Bit rate mode : Constant
Bit rate : 1 509 Kbps
Channel(s) : 6 channels
Channel positions : Front: L C R, Side: L R, LFE
Sampling rate : 48.0 KHz
Bit depth : 24 bits
Compression mode : Lossy
Stream size : 1.12 GiB (23%)
Title : DTS 5.1 - Original
Language : French
Default : No
Forced : No
Text
ID : 4
Format : UTF-8
Codec ID : S_TEXT/UTF8
Codec ID/Info : UTF-8 Plain Text
Language : Russian
Default : No
Forced : No
-
-
Скачать

Скачать торрент!

Как скачивать? · Что такое торрент? · Рейтинг и ограничения

Сайт не распространяет и не хранит электронные версии произведений, а лишь предоставляет доступ к создаваемому пользователями каталогу ссылок на торрент-файлы, которые содержат только списки хеш-сумм

[Профиль] [ЛС]
Показать сообщения:    
Ответить на тему

Текущее время: Сегодня 22:35

Часовой пояс: GMT + 4



Вы не можете начинать темы
Вы не можете отвечать на сообщения
Вы не можете редактировать свои сообщения
Вы не можете удалять свои сообщения
Вы не можете голосовать в опросах
Вы не можете прикреплять файлы к сообщениям
Вы не можете скачивать файлы