Несносный дед / Jackass Presents: Bad Grandpa (Джефф Треймейн / Jeff Tremaine) [2013, США, комедия, BDRip 720p] [Unrated] MVO (Baibako) + Sub Eng + Original Eng

Ответить на тему
 
Автор Сообщение

user ®

Стаж: 7 лет 7 месяцев

Сообщений: 20008

Пост Пост: #1 от 05-Мар-2014 00:10

[Цитировать]

Несносный дед / Jackass Presents: Bad Grandpa [Unrated]
-Страна: США
Студия: Dickhouse Productions
Жанр: комедия
Год выпуска: 2013
Продолжительность: 01:42:13-Перевод: Любительский (многоголосый закадровый) Baibako
Cубтитры: Eng, Eng (BD), Eng (SDH), Eng (SDH-Colored), Fre, Spa.
Оригинальная аудиодорожка: английский
Режиссер: Джефф Треймейн / Jeff Tremaine
В ролях: Джонни Ноксвилл, Джексон Николл, Грег Харрис, Джорджина Кэйтс, Камбер Хейлик, Джилл Килл, Мэдисон Дэвис, Джордж Фонан, Грэси Мерседес, Мэрилинн Эллейн
Описание: 86-летний старикан по имени Ирвинг Зисман путешествует по Америке с необычным компаньоном — восьмилетним «внуком» Билли. По дороге заводной дедушка знакомит впечатлительного Билли с людьми, местами и ситуациями, которые вряд ли укладываются в рамки привычных представлений о воспитании. Парочка столкнется со стриптизерами, разъяренными участниками помпезного детского конкурса красоты и их не менее злыми мамашами, скорбящими посетителями панихиды, завсегдатаями бара для байкеров и другими ничего не подозревающими гражданами США.
-Рип от EbP
Сэмпл: sendfile→, rusfolder→
Тип релиза: BDRip 720p
Контейнер: MKV
Видео: 1280 x 720 (1.778), x264, 2pass, L4.1, 23.976 fps, 9000 Kbps
Аудио: 48 kHz, DD 5.1 - 384 kbps |MVO, Baibako|
Аудио 2: 48 kHz, DD 5.1 - 640 kbps |Оригинал|

MediaInfo

Полное имя : Jackass.Presents.Bad.Grandpa.2013.720p.BluRay.DD5.1.x264-EbP.Rus.Eng.mkv
Формат : Matroska
Версия формата : Version 4 / Version 2
Размер файла : 7.19 GiB
Продолжительность : 1h 42mn
Общий поток : 10.1 Mbps
Название фильма : Jackass Presents: Bad Grandpa (2013) | Rip by EbP
Дата кодирования : UTC 2014-03-03 17:23:47
Программа кодирования : mkvmerge v6.5.0 ('Isn't she lovely') built on Oct 20 2013 12:50:05
Библиотека кодирования : libebml v1.3.0 + libmatroska v1.4.1
Video
Идентификатор : 1
Формат : AVC
Формат/Информация : Advanced Video Codec
Профиль формата : High@L4.1
Параметр CABAC формата : Yes
Параметр ReFrames формата : 9 frames
Идентификатор кодека : V_MPEG4/ISO/AVC
Продолжительность : 1h 42mn
Битрейт : 9 000 Kbps
Ширина : 1 280 pixels
Высота : 720 pixels
Соотношение сторон : 16:9
Режим частоты кадров : Constant
Частота кадров : 23.976 fps
Цветовое пространство : YUV
Субдискретизация насыщенности : 4:2:0
Битовая глубина : 8 bits
Тип развёртки : Progressive
Бит/(Пиксели*Кадры) : 0.407
Размер потока : 6.31 GiB (88%)
Заголовок : Jackass Presents: Bad Grandpa (2013) by Djex
Библиотека кодирования : x264 core 133 r2334 a3ac64b
Настройки программы : cabac=1 / ref=9 / deblock=1:-3:-3 / analyse=0x3:0x113 / me=umh / subme=9 / psy=1 / psy_rd=1.05:0.00 / mixed_ref=1 / me_range=16 / chroma_me=1 / trellis=2 / 8x8dct=1 / cqm=0 / deadzone=21,11 / fast_pskip=0 / chroma_qp_offset=-2 / threads=3 / lookahead_threads=1 / sliced_threads=0 / nr=0 / decimate=0 / interlaced=0 / bluray_compat=0 / constrained_intra=0 / bframes=10 / b_pyramid=2 / b_adapt=2 / b_bias=0 / direct=3 / weightb=1 / open_gop=0 / weightp=2 / keyint=250 / keyint_min=23 / scenecut=40 / intra_refresh=0 / rc=2pass / mbtree=0 / bitrate=9000 / ratetol=1.0 / qcomp=0.65 / qpmin=0 / qpmax=69 / qpstep=4 / cplxblur=20.0 / qblur=0.5 / ip_ratio=1.40 / pb_ratio=1.30 / aq=1:0.65
Язык : English
Default : No
Forced : No
Audio #1
Идентификатор : 2
Формат : AC-3
Формат/Информация : Audio Coding 3
Расширение режима : CM (complete main)
Параметр Endianness формата : Big
Идентификатор кодека : A_AC3
Продолжительность : 1h 42mn
Вид битрейта : Constant
Битрейт : 384 Kbps
Каналы : 6 channels
Расположение каналов : Front: L C R, Side: L R, LFE
Частота : 48.0 KHz
Битовая глубина : 16 bits
Метод сжатия : Lossy
Размер потока : 281 MiB (4%)
Заголовок : DD 5.1 - 384 kbps |MVO, Baibako|
Язык : Russian
Default : Yes
Forced : No
Audio #2
Идентификатор : 3
Формат : AC-3
Формат/Информация : Audio Coding 3
Расширение режима : CM (complete main)
Параметр Endianness формата : Big
Идентификатор кодека : A_AC3
Продолжительность : 1h 42mn
Вид битрейта : Constant
Битрейт : 640 Kbps
Каналы : 6 channels
Расположение каналов : Front: L C R, Side: L R, LFE
Частота : 48.0 KHz
Битовая глубина : 16 bits
Метод сжатия : Lossy
Размер потока : 468 MiB (6%)
Заголовок : DD 5.1 - 640 kbps |Оригинал|
Язык : English
Default : No
Forced : No
Text #1
Идентификатор : 4
Формат : UTF-8
Идентификатор кодека : S_TEXT/UTF8
Идентификатор кодека/Информация : UTF-8 Plain Text
Язык : English
Default : No
Forced : No
Text #2
Идентификатор : 5
Формат : PGS
Режим смешивания : zlib
Идентификатор кодека : S_HDMV/PGS
Идентификатор кодека/Информация : The same subtitle format used on BDs/HD-DVDs
Заголовок : BD
Язык : English
Default : No
Forced : No
Text #3
Идентификатор : 6
Формат : UTF-8
Идентификатор кодека : S_TEXT/UTF8
Идентификатор кодека/Информация : UTF-8 Plain Text
Заголовок : SDH
Язык : English
Default : No
Forced : No
Text #4
Идентификатор : 7
Формат : UTF-8
Идентификатор кодека : S_TEXT/UTF8
Идентификатор кодека/Информация : UTF-8 Plain Text
Заголовок : SDH-Colored
Язык : English
Default : No
Forced : No
Text #5
Идентификатор : 8
Формат : PGS
Режим смешивания : zlib
Идентификатор кодека : S_HDMV/PGS
Идентификатор кодека/Информация : The same subtitle format used on BDs/HD-DVDs
Язык : French
Default : No
Forced : No
Text #6
Идентификатор : 9
Формат : PGS
Режим смешивания : zlib
Идентификатор кодека : S_HDMV/PGS
Идентификатор кодека/Информация : The same subtitle format used on BDs/HD-DVDs
Язык : Spanish
Default : No
Forced : No
Menu
00:00:00.000 : en:00:00:00.000
00:07:18.772 : en:00:07:18.772
00:18:03.082 : en:00:18:03.082
00:25:39.413 : en:00:25:39.413
00:32:17.352 : en:00:32:17.352
00:42:02.562 : en:00:42:02.562
00:48:59.395 : en:00:48:59.395
00:57:16.308 : en:00:57:16.308
01:04:32.911 : en:01:04:32.911
01:11:59.774 : en:01:11:59.774
01:18:44.303 : en:01:18:44.303
01:26:40.862 : en:01:26:40.862
01:33:32.231 : en:01:33:32.231

Скриншоты

Source | Encode | BLOW



Скачать

Скачать торрент!

Как скачивать? · Что такое торрент? · Рейтинг и ограничения

Сайт не распространяет и не хранит электронные версии произведений, а лишь предоставляет доступ к создаваемому пользователями каталогу ссылок на торрент-файлы, которые содержат только списки хеш-сумм

[Профиль] [ЛС]
Показать сообщения:    
Ответить на тему

Текущее время: Сегодня 00:23

Часовой пояс: GMT + 4



Вы не можете начинать темы
Вы не можете отвечать на сообщения
Вы не можете редактировать свои сообщения
Вы не можете удалять свои сообщения
Вы не можете голосовать в опросах
Вы не можете прикреплять файлы к сообщениям
Вы не можете скачивать файлы