Слева от центра / Left of center (Дэвид Эй Норман / David A Norman) [2014, США, триллер, драма, HDRip] DVO (HamsterStudio) + Sub Rus + Original Eng

Ответить на тему
 
Автор Сообщение

user ®

Стаж: 7 лет 7 месяцев

Сообщений: 20008

Пост Пост: #1 от 04-Мар-2014 15:45

[Цитировать]

Слева от центра / Left of center
Страна: США
Жанр: триллер, драма
Год выпуска: 2014
Продолжительность: 01:20:02
Перевод: Любительский (двухголосый закадровый) HamsterStudio
Cубтитры: русские Antonio
Оригинальная аудиодорожка: английский
Режиссер: Дэвид Эй Норман / David A Norman
В ролях: Брайсон Бэйкер, Джейсон Уилкинсон, Джэми Харрис, Лорен Кастер, Там Джексон, Дастин Уилсон, Chris Harris, Дастин Чадуэлл
Описание: В маленьком городке в Северной Оклахоме, вдоль трассы 177, происходит серия убийств.
В расследование оказываются вовлечены патрульный Джон Фергюсон и местный шеф полиции Том Паркер, которые оба лично заинтересованы найти убийцу. По ходу расследования двое мужчин сталкиваются с пугающими открытиями и тёмными секретами местной общины.

Над релизом работали:
Озвучка: Андрей Жариков и Анастасия Снегирева
Перевод: Antonio
Работа с видео, монтаж и сведение звука: Kiberline
Сэмпл: http://multi-up.com/954358
Качество видео: HDRip
Формат видео: AVI
Видео: DivX 5 720x304 23.98fps 934Kbps
Аудио 1: MPEG Audio Layer 3 48000Hz stereo 128Kbps [русский]
Аудио 2: MPEG Audio Layer 3 48000Hz stereo 192Kbps [английский]
Формат субтитров: softsub (SRT)

MediaInfo

General
Complete name : D:\TORRENTS\Слева от центра\Left of Center.avi
Format : AVI
Format/Info : Audio Video Interleave
File size : 728 MiB
Duration : 1h 20mn
Overall bit rate : 1 269 Kbps
Writing application : VirtualDubMod 1.5.4.1 (build 2178/release)
Writing library : VirtualDubMod build 2178/release
Video
ID : 0
Format : MPEG-4 Visual
Format profile : Simple@L1
Format settings, BVOP : No
Format settings, QPel : No
Format settings, GMC : No warppoints
Format settings, Matrix : Default (H.263)
Codec ID : DX50
Codec ID/Hint : DivX 5
Duration : 1h 20mn
Bit rate : 935 Kbps
Width : 720 pixels
Height : 304 pixels
Display aspect ratio : 2.35:1
Frame rate : 23.976 fps
Color space : YUV
Chroma subsampling : 4:2:0
Bit depth : 8 bits
Scan type : Progressive
Compression mode : Lossy
Bits/(Pixel*Frame) : 0.178
Stream size : 536 MiB (74%)
Writing library : Lavc53.42.0
Audio #1
ID : 1
Format : MPEG Audio
Format version : Version 1
Format profile : Layer 3
Mode : Joint stereo
Mode extension : MS Stereo
Codec ID : 55
Codec ID/Hint : MP3
Duration : 1h 20mn
Bit rate mode : Constant
Bit rate : 128 Kbps
Channel(s) : 2 channels
Sampling rate : 48.0 KHz
Compression mode : Lossy
Stream size : 73.4 MiB (10%)
Alignment : Split accross interleaves
Interleave, duration : 42 ms (1.00 video frame)
Interleave, preload duration : 500 ms
Audio #2
ID : 2
Format : MPEG Audio
Format version : Version 1
Format profile : Layer 3
Mode : Joint stereo
Mode extension : MS Stereo
Codec ID : 55
Codec ID/Hint : MP3
Duration : 1h 20mn
Bit rate mode : Constant
Bit rate : 192 Kbps
Channel(s) : 2 channels
Sampling rate : 48.0 KHz
Compression mode : Lossy
Stream size : 110 MiB (15%)
Alignment : Aligned on interleaves
Interleave, duration : 42 ms (1.00 video frame)
Interleave, preload duration : 504 ms

Скриншот c названием фильма

Скриншоты

Скачать

Скачать торрент!

Как скачивать? · Что такое торрент? · Рейтинг и ограничения

Сайт не распространяет и не хранит электронные версии произведений, а лишь предоставляет доступ к создаваемому пользователями каталогу ссылок на торрент-файлы, которые содержат только списки хеш-сумм

[Профиль] [ЛС]
Показать сообщения:    
Ответить на тему

Текущее время: Сегодня 20:06

Часовой пояс: GMT + 4



Вы не можете начинать темы
Вы не можете отвечать на сообщения
Вы не можете редактировать свои сообщения
Вы не можете удалять свои сообщения
Вы не можете голосовать в опросах
Вы не можете прикреплять файлы к сообщениям
Вы не можете скачивать файлы