Север / El Norte / The North (Грегори Нава / Gregory Nava) [1983, США, Гватемала, драма, BDRip 720p] [Criterion #458] Sub Rus, Eng + Original Spa

Ответить на тему
 
Автор Сообщение

user ®

Стаж: 7 лет 7 месяцев

Сообщений: 20008

Пост Пост: #1 от 04-Мар-2014 01:20

[Цитировать]

Север / El Norte / The North
-Страна: США, Гватемала
Студия: Independent Productions
Жанр: драма
Год выпуска: 1983
Продолжительность: 02:20:55-Перевод: субтитры
Cубтитры: русские (interdude), английские
Оригинальная аудиодорожка: киче́, английский, испанский-Режиссер: Грегори Нава / Gregory Nava
В ролях: Эрнесто Гомес Крус, Дэвид Виллальпандо, Сайде Сильвия Гутьеррес, Алисия дель Лаго, Майк Гомез, Стелла Квон, Эраклио Сепеда и др.-Описание: Главные герои — брат и сестра из Гватемалы, Энрике и Роза. Их отца убили за организацию забастовки рабочих. Детям приходится спасаться бегством от военных, они выносят тяготы нищеты, проявления расизма, а потом предпринимают поездку на север...-Сэмпл: http://www.sendspace.com/file/cpuf9m-Тип релиза: BDRip 720p (WiKi)
Контейнер: MKV
Видео: MPEG-4 AVC / 7640 kbps / 1280 x 720 / 23.976 fps / 1.78:1
Аудио: K'iche', English, Spanish / AC3 1.0 / 48 kHz / 448 kbps
Формат субтитров: softsub (SRT)
Навигация по главам: есть- -

MediaInfo

Общее
Уникальный идентификатор                 : 173429631073794007488956160132833677493 (0x827954FC2D2287A7BC57A1CC98F110B5)
Полное имя                               : F:\Criterion Collection\Север\El Norte.1983.Criterion Collection.BD-Rip.720p-WiKi.mkv
Формат                                   : Matroska
Версия формата                           : Version 4 / Version 2
Размер файла                             : 7,96 Гбайт
Продолжительность                        : 2 ч. 20 м.
Общий поток                              : 8086 Кбит/сек
Дата кодирования                         : UTC 2014-03-03 18:09:52
Программа кодирования                    : mkvmerge v6.6.0 ('The Edge Of The In Between') built on Dec  1 2013 17:55:00
Библиотека кодирования                   : libebml v1.3.0 + libmatroska v1.4.1
Видео
Идентификатор                            : 1
Формат                                   : AVC
Формат/Информация                        : Advanced Video Codec
Профиль формата                          : High@L4.1
Параметр CABAC формата                   : Да
Параметр ReFrames формата                : 9 кадров
Идентификатор кодека                     : V_MPEG4/ISO/AVC
Продолжительность                        : 2 ч. 20 м.
Битрейт                                  : 7640 Кбит/сек
Ширина                                   : 1280 пикселей
Высота                                   : 720 пикселей
Соотношение сторон                       : 16:9
Режим частоты кадров                     : Постоянный
Частота кадров                           : 23,976 кадра/сек
Цветовое пространство                    : YUV
Субдискретизация насыщенности            : 4:2:0
Битовая глубина                          : 8 бит
Тип развёртки                            : Прогрессивная
Бит/(Пиксели*Кадры)                      : 0.346
Размер потока                            : 7,36 Гбайт (92%)
Заголовок                                : El Norte
Библиотека кодирования                   : x264 core 130 r2273 b3065e6
Настройки программы                      : cabac=1 / ref=9 / deblock=1:-3:-3 / analyse=0x3:0x113 / me=umh / subme=11 / psy=1 / psy_rd=0.85:0.15 / mixed_ref=1 / me_range=32 / chroma_me=1 / trellis=2 / 8x8dct=1 / cqm=0 / deadzone=21,11 / fast_pskip=0 / chroma_qp_offset=-5 / threads=6 / lookahead_threads=1 / sliced_threads=0 / nr=0 / decimate=0 / interlaced=0 / bluray_compat=0 / constrained_intra=0 / bframes=8 / b_pyramid=2 / b_adapt=2 / b_bias=0 / direct=3 / weightb=1 / open_gop=0 / weightp=2 / keyint=250 / keyint_min=23 / scenecut=40 / intra_refresh=0 / rc_lookahead=90 / rc=2pass / mbtree=1 / bitrate=7640 / ratetol=1.0 / qcomp=0.60 / qpmin=0 / qpmax=69 / qpstep=4 / cplxblur=20.0 / qblur=0.5 / ip_ratio=1.40 / aq=1:0.75
Язык                                     : Spanish
Default                                  : Да
Forced                                   : Нет
Аудио
Идентификатор                            : 2
Формат                                   : AC-3
Формат/Информация                        : Audio Coding 3
Расширение режима                        : CM (complete main)
Параметр Endianness формата              : Big
Идентификатор кодека                     : A_AC3
Продолжительность                        : 2 ч. 20 м.
Вид битрейта                             : Постоянный
Битрейт                                  : 448 Кбит/сек
Каналы                                   : 1 канал
Расположение каналов                     : Front: C
Частота                                  : 48,0 КГц
Битовая глубина                          : 16 бит
Метод сжатия                             : С потерями
Размер потока                            : 452 Мбайт (6%)
Заголовок                                : [AC3 1.0 @ 448 kbps]
Язык                                     : Spanish
Default                                  : Да
Forced                                   : Нет
Текст #1
Идентификатор                            : 3
Формат                                   : UTF-8
Идентификатор кодека                     : S_TEXT/UTF8
Идентификатор кодека/Информация          : UTF-8 Plain Text
Заголовок                                : interdude
Язык                                     : Russian
Default                                  : Да
Forced                                   : Нет
Текст #2
Идентификатор                            : 4
Формат                                   : UTF-8
Идентификатор кодека                     : S_TEXT/UTF8
Идентификатор кодека/Информация          : UTF-8 Plain Text
Язык                                     : English
Default                                  : Нет
Forced                                   : Нет
Меню
00:00:00.000                             : en:Part One: Arturo Xuncax
00:04:39.988                             : en:Evening in San Pedro
00:12:34.628                             : en:Meeting at the Old Hacienda
00:17:00.019                             : en:"On Earth in Passing"
00:19:42.306                             : en:Rosa Senses Trouble
00:26:12.529                             : en:Seeking Guidance
00:31:57.165                             : en:Preparations
00:35:32.130                             : en:Night Flight
00:39:13.642                             : en:Part Two: El Coyote
00:45:15.671                             : en:"Lost City"
00:51:42.432                             : en:Jaime, the Coyote
00:56:45.193                             : en:FInding Raimundo
01:01:56.504                             : en:Crossing the Border
01:07:07.314                             : en:End in Sight
01:14:22.791                             : en:Part Three: The North
01:18:21.697                             : en:First Day on the Job
01:23:39.139                             : en:Koreans, Chicanos, and Gringos
01:29:32.075                             : en:"Electronic Fabric Care"
01:36:18.272                             : en:Ricky's Promotion
01:41:07.478                             : en:Opportunity Knocks
01:43:40.130                             : en:"You Can Be Legal"
01:48:28.501                             : en:Evil Ways
01:51:51.162                             : en:'La Migra'
01:57:17.447                             : en:Enrique Reconsiders
02:02:41.979                             : en:"We Have No Home"
02:11:02.646                             : en:Strong Arms

Скриншоты


Доп. информация

* За помощь в переводе большое спасибо пользователю [url=http://***/forum/profile.php?mode=viewprofile&u=6076390]tb303[/url]
* В переводе присутствует, в небольших количествах, ненормативная лексика
-
Скачать

Скачать торрент!

Как скачивать? · Что такое торрент? · Рейтинг и ограничения

Сайт не распространяет и не хранит электронные версии произведений, а лишь предоставляет доступ к создаваемому пользователями каталогу ссылок на торрент-файлы, которые содержат только списки хеш-сумм

[Профиль] [ЛС]
Показать сообщения:    
Ответить на тему

Текущее время: Сегодня 14:36

Часовой пояс: GMT + 4



Вы не можете начинать темы
Вы не можете отвечать на сообщения
Вы не можете редактировать свои сообщения
Вы не можете удалять свои сообщения
Вы не можете голосовать в опросах
Вы не можете прикреплять файлы к сообщениям
Вы не можете скачивать файлы