Стук / Knock / Nokeu (Ли Чжун Хон / Lee Joo-heon) [2012, Южная Корея, триллер, мистика, HDRip] DVO

Ответить на тему
 
Автор Сообщение

user ®

Стаж: 11 лет

Сообщений: 15151

Пост Пост: #1 от 03-Мар-2014 22:10

[Цитировать]

Стук / Knock / Nokeu
Страна: Южная Корея
Жанр: триллер, мистика
Год выпуска: 2012
Продолжительность: 01:48:02-Перевод: Любительский (двухголосый закадровый) den904 & Deadsno
Cубтитры: нет
Оригинальная аудиодорожка: нет-Режиссер: Ли Чжун Хон / Lee Joo-heon
В ролях: Со У, Ким Хён Сон, Пэк Со Пин, Чжу Ми Ха-Описание: Чжон Хва переезжает в квартиру, чтобы быть поближе к школе...
Через некоторое время она сталкивает с призраком...- -Релиз группы
-Качество видео: HDRip
Формат видео: AVI
Видео: XviD, 720x400 (1.80:1), 24 fps, 1736 kbps avg, 0.25 bit/pixel
Аудио: Русский MPEG layer 3, 192 kbps-

Доп. информация

Перевод : DeadSno
Рип, Звук : Public Enemy (((

MediaInfo

Format : AVI
Format/Info : Audio Video Interleave
File size : 1.46 GiB
Duration : 1h 48mn
Overall bit rate : 1 938 Kbps
Writing application : VirtualDubMod 1.5.10.2 (build 2540/release)
Writing library : VirtualDubMod build 2540/release
Video
ID : 0
Format : MPEG-4 Visual
Format profile : Advanced Simple@L5
Format settings, BVOP : 1
Format settings, QPel : No
Format settings, GMC : No warppoints
Format settings, Matrix : Custom
Codec ID : XVID
Codec ID/Hint : XviD
Duration : 1h 48mn
Bit rate : 1 737 Kbps
Width : 720 pixels
Height : 400 pixels
Display aspect ratio : 16:9
Frame rate : 24.000 fps
Color space : YUV
Chroma subsampling : 4:2:0
Bit depth : 8 bits
Scan type : Progressive
Compression mode : Lossy
Bits/(Pixel*Frame) : 0.251
Stream size : 1.31 GiB (90%)
Writing library : XviD 73
Audio
ID : 1
Format : MPEG Audio
Format version : Version 1
Format profile : Layer 3
Mode : Joint stereo
Codec ID : 55
Codec ID/Hint : MP3
Duration : 1h 48mn
Bit rate mode : Constant
Bit rate : 192 Kbps
Channel(s) : 2 channels
Sampling rate : 48.0 KHz
Compression mode : Lossy
Stream size : 148 MiB (10%)
Alignment : Aligned on interleaves
Interleave, duration : 42 ms (1.00 video frame)
Interleave, preload duration : 504 ms

Скриншот с названием

Скриншоты

Скачать

Скачать торрент! Стук / Knock / Nokeu (Ли Чжун Хон / Lee Joo-heon) [2012, Южная Корея, триллер, мистика, HDRip] DVO

Как скачивать? · Что такое торрент? · Рейтинг и ограничения

Сайт не распространяет и не хранит электронные версии произведений, а лишь предоставляет доступ к создаваемому пользователями каталогу ссылок на торрент-файлы, которые содержат только списки хеш-сумм

[Профиль] [ЛС]
Показать сообщения:    
Ответить на тему

Текущее время: Сегодня 12:23

Часовой пояс: GMT + 4



Вы не можете начинать темы
Вы не можете отвечать на сообщения
Вы не можете редактировать свои сообщения
Вы не можете удалять свои сообщения
Вы не можете голосовать в опросах
Вы не можете прикреплять файлы к сообщениям
Вы не можете скачивать файлы