Ужасный отель / Horrible hotel / Horror hotel / Love motel (Чжан Лайчжи / Zhang Laizhi) [2012, Китай, триллер, драма, HDRip] DVO

Ответить на тему
 
Автор Сообщение

user ®

Стаж: 13 лет

Сообщений: 15071

Пост Пост: #1 от 03-Мар-2014 22:10

[Цитировать]

Ужасный отель / Horrible hotel / Horror hotel / Love motel
Страна: Китай
Жанр: триллер, драма
Год выпуска: 2012
Продолжительность: 01:25:59-Перевод: Любительский (двухголосый закадровый) den904 & Deadsno
Cубтитры: китайские + английские (вшитые)
Оригинальная аудиодорожка: нет-Режиссер: Чжан Лайчжи / Zhang Laizhi
В ролях: Винсент Чань, Анжела Гон, Чжао Мин, Лай Си, Анья-Описание: Линь Синь Я и Ян Чэнь - телерепортёр и пара влюблённых, они отправляют в отель, в котором произошло загадочное убийство....- -Релиз групп
-Качество видео: HDRip
Формат видео: AVI
Видео: XviD, 720x304 (2.37:1), 25 fps, 2223 kbps avg, 0.41 bit/pixel
Аудио: Русский MPEG layer 3, 192 kbps-

Доп. информация

Перевод, Тайминг: Ками
Рип, Звук, Постер: Public Enemy (((

MediaInfo

Format : AVI
Format/Info : Audio Video Interleave
File size : 1.46 GiB
Duration : 1h 25mn
Overall bit rate : 2 426 Kbps
Writing application : VirtualDubMod 1.5.10.3 | www.virtualdub-fr.org || (build 2550/release)
Writing library : VirtualDubMod build 2550/release
Video
ID : 0
Format : MPEG-4 Visual
Format profile : Advanced Simple@L5
Format settings, BVOP : 1
Format settings, QPel : No
Format settings, GMC : No warppoints
Format settings, Matrix : Custom
Codec ID : XVID
Codec ID/Hint : XviD
Duration : 1h 25mn
Bit rate : 2 224 Kbps
Width : 720 pixels
Height : 304 pixels
Display aspect ratio : 2.35:1
Frame rate : 25.000 fps
Color space : YUV
Chroma subsampling : 4:2:0
Bit depth : 8 bits
Scan type : Progressive
Compression mode : Lossy
Bits/(Pixel*Frame) : 0.406
Stream size : 1.34 GiB (92%)
Writing library : XviD 73
Audio
ID : 1
Format : MPEG Audio
Format version : Version 1
Format profile : Layer 3
Codec ID : 55
Codec ID/Hint : MP3
Duration : 1h 25mn
Bit rate mode : Constant
Bit rate : 192 Kbps
Channel(s) : 2 channels
Sampling rate : 32.0 KHz
Compression mode : Lossy
Stream size : 118 MiB (8%)
Alignment : Aligned on interleaves
Interleave, duration : 40 ms (1.00 video frame)
Interleave, preload duration : 504 ms

Скриншот с названием

Скриншоты

Скачать

Скачать торрент! Ужасный отель / Horrible hotel / Horror hotel / Love motel (Чжан Лайчжи / Zhang Laizhi) [2012, Китай, триллер, драма, HDRip] DVO

Как скачивать? · Что такое торрент? · Рейтинг и ограничения

Сайт не распространяет и не хранит электронные версии произведений, а лишь предоставляет доступ к создаваемому пользователями каталогу ссылок на торрент-файлы, которые содержат только списки хеш-сумм

[Профиль] [ЛС]
Показать сообщения:    
Ответить на тему

Текущее время: Сегодня 16:57

Часовой пояс: GMT + 4



Вы не можете начинать темы
Вы не можете отвечать на сообщения
Вы не можете редактировать свои сообщения
Вы не можете удалять свои сообщения
Вы не можете голосовать в опросах
Вы не можете прикреплять файлы к сообщениям
Вы не можете скачивать файлы