Город моцарта / Mozart Town / Mochareuteu Tawoon (Чжон Гё Хван / Jeon Kyu-hwan) [2011, Южная Корея, драма, HDRip] DVO

Ответить на тему
 
Автор Сообщение

user ®

Стаж: 13 лет

Сообщений: 15071

Пост Пост: #1 от 03-Мар-2014 22:10

[Цитировать]

Город моцарта / Mozart Town / Mochareuteu Tawoon
Страна: Южная Корея
Жанр: драма
Год выпуска: 2011
Продолжительность: 01:30:54-Перевод: Любительский (двухголосый закадровый) den904 & Deadsno
Cубтитры: нет
Оригинальная аудиодорожка: нет-Режиссер: Чжон Гё Хван / Jeon Kyu-hwan
В ролях: О Сон Тхэ, Чжу Ю Ран, Блейз Гбато-Описание: Чиж Вон, которая владеет небольшим киоском, любит тайно фотографировать прохожих людей...- -Релиз группы
-Качество видео: HDRip
Формат видео: AVI
Видео: XviD, 720x400 (1.80:1), 29.970 fps, 1951 kbps avg, 0.23 bit/pixel
Аудио: Русский MPEG layer 3, 192 kbps- -

Доп. информация

Перевод : DeadSno
Звук : Public Enemy (((

MediaInfo

Format : AVI
Format/Info : Audio Video Interleave
File size : 1.37 GiB
Duration : 1h 30mn
Overall bit rate : 2 155 Kbps
Writing library : VirtualDub-MPEG2 build 24586/release
Video
ID : 0
Format : MPEG-4 Visual
Format profile : Advanced Simple@L5
Format settings, BVOP : 2
Format settings, QPel : No
Format settings, GMC : No warppoints
Format settings, Matrix : Default (H.263)
Muxing mode : Packed bitstream
Codec ID : XVID
Codec ID/Hint : XviD
Duration : 1h 30mn
Bit rate : 1 951 Kbps
Width : 720 pixels
Height : 400 pixels
Display aspect ratio : 16:9
Frame rate : 29.970 fps
Color space : YUV
Chroma subsampling : 4:2:0
Bit depth : 8 bits
Scan type : Progressive
Compression mode : Lossy
Bits/(Pixel*Frame) : 0.226
Stream size : 1.24 GiB (91%)
Writing library : XviD 1.2.0SMP (UTC 2006-01-08)
Audio
ID : 1
Format : MPEG Audio
Format version : Version 1
Format profile : Layer 3
Mode : Joint stereo
Codec ID : 55
Codec ID/Hint : MP3
Duration : 1h 30mn
Bit rate mode : Constant
Bit rate : 192 Kbps
Channel(s) : 2 channels
Sampling rate : 48.0 KHz
Compression mode : Lossy
Stream size : 125 MiB (9%)
Alignment : Split accross interleaves
Interleave, duration : 33 ms (1.00 video frame)
Interleave, preload duration : 500 ms

Скриншот с названием

Скриншоты

Скачать

Скачать торрент! Город моцарта / Mozart Town / Mochareuteu Tawoon (Чжон Гё Хван / Jeon Kyu-hwan) [2011, Южная Корея, драма, HDRip] DVO

Как скачивать? · Что такое торрент? · Рейтинг и ограничения

Сайт не распространяет и не хранит электронные версии произведений, а лишь предоставляет доступ к создаваемому пользователями каталогу ссылок на торрент-файлы, которые содержат только списки хеш-сумм

[Профиль] [ЛС]
Показать сообщения:    
Ответить на тему

Текущее время: Сегодня 11:32

Часовой пояс: GMT + 4



Вы не можете начинать темы
Вы не можете отвечать на сообщения
Вы не можете редактировать свои сообщения
Вы не можете удалять свои сообщения
Вы не можете голосовать в опросах
Вы не можете прикреплять файлы к сообщениям
Вы не можете скачивать файлы