Воровка книг / The Book Thief (Брайан Персивал / Brian Percival) [2013, США, Германия, драма, военный, BDRip 1080p] Dub (CEE) + Original (Eng) + Sub (Rus, Ukr, Eng)

Ответить на тему
 
Автор Сообщение

user ®

Стаж: 7 лет 7 месяцев

Сообщений: 20008

Пост Пост: #1 от 03-Мар-2014 22:10

[Цитировать]

Воровка книг / The Book Thief«Отвага без лишних слов»- Страна: США, Германия
Жанр: драма, военный
Год выпуска: 2013
Продолжительность: 02:11:00-Перевод: Профессиональный (полное дублирование) CEE
Оригинальная аудиодорожка: English
Cубтитры: Russian (forced + full), Ukrainian, English (forced + SDH full + full)
Навигация по главам: Присутствует-Режиссер: Брайан Персивал / Brian Percival
В ролях: Софи Нелисс, Джеффри Раш, Эмили Уотсон, Бен Шнетцер, Нико Лирш, Роджер Аллам, Барбара Ауэр, Карина Визе, Оливер Стоковски, Райнер Бок-Описание: Германия, начало 1939 года, канун Второй мировой войны. Смерть готовится начать свою жатву. Девятилетняя Лизель переезжает в Мюнхен к своим приемным родителям и с их помощью учится читать. С каждым днем чтение становится ее жизненной потребностью, и Лизель начинает воровать книги — единственную отраду ее жизни. Все, что она узнает из них, помогает ей понять события, происходящие вокруг нее — гонение на евреев, антифашистское движение, унижения и голод. Все это, в конце концов, сложится в ее собственную историю, историю ее жизни.-imdb.com: 7.70 (19 762)
kinopoisk.ru: 7.914 (8178)
Download sample-Качество видео: BDRip 1080p | исх. The Book Thief (2013) Blu-ray CEE 1080p AVC DTS 5.1
Формат видео: MKV-Видео: 1920x800 at 23.976 fps, x264@L4.1, crf, ~15022 kbps avg
Аудио №1: 48 kHz, DTS, 3/2 (L,C,R,l,r) + LFE ch, ~768 kbps avg | Профессиональный (полное дублирование) CEE
Аудио №2: 48 kHz, DTS, 3/2 (L,C,R,l,r) + LFE ch, ~1509 kbps avg | English-

Дополнительно

Рип от SbR
by Skazhutin

MediaInfo

General
Unique ID : 227815476584856081468037226818407489717 (0xAB63AA3150392FCCA04D42BA22BBE0B5)
Complete name : D:\Фильмы\The.Book.Thief.2013.1080p.BluRay.Rus.Eng.HDCLUB-SbR.mkv
Format : Matroska
Format version : Version 4 / Version 2
File size : 15.8 GiB
Duration : 2h 10mn
Overall bit rate : 17.3 Mbps
Movie name : The Book Thief (2013) - Release for HDCLUB by SbR
Encoded date : UTC 2014-03-01 05:41:57
Writing application : mkvmerge v6.6.0 ('The Edge Of The In Between') built on Dec 1 2013 17:55:00
Writing library : libebml v1.3.0 + libmatroska v1.4.1
Attachment : Yes / Yes
Video
ID : 1
Format : AVC
Format/Info : Advanced Video Codec
Format profile : High@L4.1
Format settings, CABAC : Yes
Format settings, ReFrames : 5 frames
Codec ID : V_MPEG4/ISO/AVC
Duration : 2h 10mn
Bit rate : 14.7 Mbps
Width : 1 920 pixels
Height : 800 pixels
Display aspect ratio : 2.40:1
Frame rate mode : Constant
Frame rate : 23.976 fps
Color space : YUV
Chroma subsampling : 4:2:0
Bit depth : 8 bits
Scan type : Progressive
Bits/(Pixel*Frame) : 0.399
Stream size : 13.4 GiB (85%)
Title : Release for HDCLUB
Writing library : x264 core 142 r2389+41 02cb608 tMod [8-bit@4:2:0 X86_64]
Encoding settings : cabac=1 / ref=5 / deblock=1:-2:-2 / analyse=0x3:0x113 / me=umh / subme=11 / psy=1 / fade_compensate=0.00 / psy_rd=1.00:0.00 / mixed_ref=1 / me_range=48 / chroma_me=1 / trellis=2 / 8x8dct=1 / cqm=0 / deadzone=21,11 / fast_pskip=1 / chroma_qp_offset=-2 / threads=12 / lookahead_threads=3 / sliced_threads=0 / nr=0 / decimate=1 / interlaced=0 / bluray_compat=0 / constrained_intra=0 / fgo=0 / bframes=10 / b_pyramid=2 / b_adapt=2 / b_bias=0 / direct=3 / weightb=1 / open_gop=0 / weightp=2 / keyint=250 / keyint_min=23 / scenecut=40 / intra_refresh=0 / rc_lookahead=60 / rc=crf / mbtree=0 / crf=18.5000 / qcomp=0.70 / qpmin=0:0:0 / qpmax=69:69:69 / qpstep=4 / vbv_maxrate=62500 / vbv_bufsize=78125 / crf_max=0.0 / nal_hrd=none / filler=0 / ip_ratio=1.40 / pb_ratio=1.30 / aq=4:0.80 / aq-sensitivity=11.00 / aq-factor=1.00:1.00:1.00 / aq2=1:0.60 / aq2-sensitivity=9.00 / aq2-factor=1.00:1.00:1.00 / aq3=1:[0.60:0.60]:[0.60:0.60]:[0.60:0.60]:[0.60:0.60] / aq3-sensitivity=10.00 / aq3-factor=[1.00:1.00]:[1.00:1.00]:[1.00:1.00] / aq3-boundary=192:64:24
Language : English
Default : Yes
Forced : No
Color primaries : BT.709
Transfer characteristics : BT.709
Matrix coefficients : BT.709
Audio #1
ID : 2
Format : DTS
Format/Info : Digital Theater Systems
Mode : 16
Format settings, Endianness : Big
Codec ID : A_DTS
Duration : 2h 10mn
Bit rate mode : Constant
Bit rate : 768 Kbps
Channel count : 6 channels
Channel positions : Front: L C R, Side: L R, LFE
Sampling rate : 48.0 KHz
Bit depth : 24 bits
Compression mode : Lossy
Stream size : 720 MiB (4%)
Title : Dub, Blu-ray CEE
Language : Russian
Default : Yes
Forced : No
Audio #2
ID : 3
Format : DTS
Format/Info : Digital Theater Systems
Mode : 16
Format settings, Endianness : Big
Codec ID : A_DTS
Duration : 2h 10mn
Bit rate mode : Constant
Bit rate : 1 509 Kbps
Channel count : 6 channels
Channel positions : Front: L C R, Side: L R, LFE
Sampling rate : 48.0 KHz
Bit depth : 24 bits
Compression mode : Lossy
Stream size : 1.38 GiB (9%)
Language : English
Default : No
Forced : No
Text #1
ID : 4
Format : UTF-8
Codec ID : S_TEXT/UTF8
Codec ID/Info : UTF-8 Plain Text
Title : forced
Language : Russian
Default : Yes
Forced : No
Text #2
ID : 5
Format : UTF-8
Codec ID : S_TEXT/UTF8
Codec ID/Info : UTF-8 Plain Text
Language : Russian
Default : No
Forced : No
Text #3
ID : 6
Format : UTF-8
Codec ID : S_TEXT/UTF8
Codec ID/Info : UTF-8 Plain Text
Language : Ukrainian
Default : No
Forced : No
Text #4
ID : 7
Format : UTF-8
Codec ID : S_TEXT/UTF8
Codec ID/Info : UTF-8 Plain Text
Title : forced
Language : English
Default : No
Forced : No
Text #5
ID : 8
Format : UTF-8
Codec ID : S_TEXT/UTF8
Codec ID/Info : UTF-8 Plain Text
Title : SDH
Language : English
Default : No
Forced : No
Text #6
ID : 9
Format : UTF-8
Codec ID : S_TEXT/UTF8
Codec ID/Info : UTF-8 Plain Text
Language : English
Default : No
Forced : No
Menu
00:00:00.000 : en:Chapter 1
00:03:50.230 : en:Chapter 2
00:07:58.060 : en:Chapter 3
00:10:27.126 : en:Chapter 4
00:13:42.404 : en:Chapter 5
00:17:54.948 : en:Chapter 6
00:20:17.591 : en:Chapter 7
00:23:01.380 : en:Chapter 8
00:24:57.746 : en:Chapter 9
00:26:58.158 : en:Chapter 10
00:30:54.811 : en:Chapter 11
00:34:01.164 : en:Chapter 12
00:39:21.859 : en:Chapter 13
00:43:00.869 : en:Chapter 14
00:45:09.998 : en:Chapter 15
00:50:59.055 : en:Chapter 16
00:52:18.760 : en:Chapter 17
00:54:55.709 : en:Chapter 18
00:59:04.624 : en:Chapter 19
01:02:16.232 : en:Chapter 20
01:05:42.563 : en:Chapter 21
01:08:20.513 : en:Chapter 22
01:12:41.982 : en:Chapter 23
01:18:14.856 : en:Chapter 24
01:23:50.025 : en:Chapter 25
01:27:59.399 : en:Chapter 26
01:30:46.274 : en:Chapter 27
01:36:25.404 : en:Chapter 28
01:40:48.584 : en:Chapter 29
01:43:54.811 : en:Chapter 30
01:47:24.104 : en:Chapter 31
01:49:38.405 : en:Chapter 32
01:54:24.274 : en:Chapter 33
02:02:10.948 : en:Chapter 34
02:03:13.386 : en:Chapter 35
02:05:21.514 : en:Chapter 36

Скриншоты

Скачать

Скачать торрент!

Как скачивать? · Что такое торрент? · Рейтинг и ограничения

Сайт не распространяет и не хранит электронные версии произведений, а лишь предоставляет доступ к создаваемому пользователями каталогу ссылок на торрент-файлы, которые содержат только списки хеш-сумм

[Профиль] [ЛС]
Показать сообщения:    
Ответить на тему

Текущее время: Сегодня 18:12

Часовой пояс: GMT + 4



Вы не можете начинать темы
Вы не можете отвечать на сообщения
Вы не можете редактировать свои сообщения
Вы не можете удалять свои сообщения
Вы не можете голосовать в опросах
Вы не можете прикреплять файлы к сообщениям
Вы не можете скачивать файлы