Эммануэль и правда о рыбах / The Truth About Emanuel (Франческа Грегорини / Francesca Gregorini) [2013, США, триллер, драма, WEB-DL 720p] VO + Original (Eng) + Sub (eng)

Ответить на тему
 
Автор Сообщение

user ®

Стаж: 7 лет 7 месяцев

Сообщений: 20008

Пост Пост: #1 от 03-Мар-2014 22:10

[Цитировать]

Эммануэль и правда о рыбах
The Truth About Emanuel
Страна: США
Год выпуска: 2013
Жанр: триллер, драма
Продолжительность: 01:35:44
Перевод: Одноголосый закадровый - Andi
русские субтитры: нет-Режиссёр: Франческа Грегорини : Francesca Gregorini
В главных ролях: Кая Скоделарио, Джессика Бил, Джимми Симпсон, Фрэнсис О’Коннор, Альфред Молина, Анайрин Барнард, Сэм Джагер, Энн Рэмси, Спенсер Гаррет, Габриэлла Диас-Описание: Эмануэль — язвительная и в то же время чувствительная девушка-подросток, живущая со своим отцом и мачехой. Приближается её очередной день рождения, однако Эмануэль безразличен этот праздник с тех пор, как её мать, подарив ей жизнь, умерла при родах. В это же время по соседству с ней поселяется загадочная Линда, обладающая поразительным сходством с покойной матерью Эмануэль. Заинтригованная данным фактом, Эмануэль начинает работать няней для новорожденной дочери Линды и постепенно втягивается в хрупкий, вымышленный мир своей соседки, в котором самой Эмануэль отведена роль привратника.- -Качество: WEB-DL 720p
Формат: MKV
Видео кодек: AVC
Аудио кодек: АС3
Видео: 1280x540, 23.976 fps, ~3 857 kbps avg, 0.233 bit/pixel
Аудио #1: [RUS] 48 kHz, AC3 Dolby Digital, 2/0 (L,R) ch, ~192 kbps
Аудио #2: [ENG] 48 kHz, AC3 Dolby Digital, 3/2 (L,C,R,l,r) + LFE ch, ~384 kbps
субтитры: английские
навигация по главам: 11 глав

скриншоты


MediaInfo

Общее
Уникальный идентификатор : 186702728710366021553228237051396611648 (0x8C75A3393E3A4FF9A8BB358D0D37DE40)
Полное имя : D:\Фильмы\Эммануэль и правда о рыбах\The Truth About Emanuel.2013.WEB-DL 720p.mkv
Формат : Matroska
Версия формата : Version 4 / Version 2
Размер файла : 3,02 Гбайт
Продолжительность : 1 ч. 35 м.
Общий поток : 4523 Кбит/сек
Дата кодирования : UTC 2014-03-03 06:24:30
Программа кодирования : mkvmerge v6.7.0 ('Back to the Ground') 32bit built on Jan 8 2014 15:03:17
Библиотека кодирования : libebml v1.3.0 + libmatroska v1.4.1
Видео
Идентификатор : 1
Формат : AVC
Формат/Информация : Advanced Video Codec
Профиль формата : Main@L3.1
Параметр CABAC формата : Нет
Параметр ReFrames формата : 2 кадра
Идентификатор кодека : V_MPEG4/ISO/AVC
Продолжительность : 1 ч. 35 м.
Битрейт : 3857 Кбит/сек
Ширина : 1280 пикселей
Высота : 540 пикселей
Соотношение сторон : 2,40:1
Режим частоты кадров : Постоянный
Частота кадров : 23,976 кадра/сек
Цветовое пространство : YUV
Субдискретизация насыщенности : 4:2:0
Битовая глубина : 8 бит
Тип развёртки : Прогрессивная
Бит/(Пиксели*Кадры) : 0.233
Размер потока : 2,58 Гбайт (85%)
Язык : English
Default : Да
Forced : Нет
Основные цвета : BT.709
Характеристики трансфера : BT.709
Коэффициенты матрицы : BT.709
Аудио #1
Идентификатор : 2
Формат : AC-3
Формат/Информация : Audio Coding 3
Расширение режима : CM (complete main)
Параметр Endianness формата : Big
Идентификатор кодека : A_AC3
Продолжительность : 1 ч. 35 м.
Вид битрейта : Постоянный
Битрейт : 192 Кбит/сек
Каналы : 2 канала
Расположение каналов : Front: L R
Частота : 48,0 КГц
Битовая глубина : 16 бит
Метод сжатия : С потерями
Размер потока : 131 Мбайт (4%)
Заголовок : VO [Andi]
Язык : Russian
Default : Да
Forced : Нет
Аудио #2
Идентификатор : 3
Формат : AC-3
Формат/Информация : Audio Coding 3
Расширение режима : CM (complete main)
Параметр Endianness формата : Big
Идентификатор кодека : A_AC3
Продолжительность : 1 ч. 35 м.
Вид битрейта : Постоянный
Битрейт : 384 Кбит/сек
Каналы : 6 каналов
Расположение каналов : Front: L C R, Side: L R, LFE
Частота : 48,0 КГц
Битовая глубина : 16 бит
Метод сжатия : С потерями
Размер потока : 263 Мбайт (8%)
Заголовок : ENG
Язык : English
Default : Нет
Forced : Нет
Текст
Идентификатор : 4
Формат : UTF-8
Идентификатор кодека : S_TEXT/UTF8
Идентификатор кодека/Информация : UTF-8 Plain Text
Заголовок : Eng Sub
Язык : English
Default : Нет
Forced : Нет
Меню
00:00:00.000 : en:Chapter 1
00:09:04.000 : en:Chapter 2
00:18:37.000 : en:Chapter 3
00:26:23.000 : en:Chapter 4
00:36:45.000 : en:Chapter 5
00:46:19.000 : en:Chapter 6
00:55:06.000 : en:Chapter 7
01:04:47.000 : en:Chapter 8
01:13:40.000 : en:Chapter 9
01:21:33.000 : en:Chapter 10
01:28:42.000 : en:Chapter 11
Скачать

Скачать торрент!

Как скачивать? · Что такое торрент? · Рейтинг и ограничения

Сайт не распространяет и не хранит электронные версии произведений, а лишь предоставляет доступ к создаваемому пользователями каталогу ссылок на торрент-файлы, которые содержат только списки хеш-сумм

[Профиль] [ЛС]
Показать сообщения:    
Ответить на тему

Текущее время: Сегодня 07:52

Часовой пояс: GMT + 4



Вы не можете начинать темы
Вы не можете отвечать на сообщения
Вы не можете редактировать свои сообщения
Вы не можете удалять свои сообщения
Вы не можете голосовать в опросах
Вы не можете прикреплять файлы к сообщениям
Вы не можете скачивать файлы