Сентиментальный меченосец 2 / Возвращение сентиментального меченосца / Return Of The Sentimental Swordsman / Mo Jian Xia Qing (Чу Юань / Chu Yuan) [1981, Гонконг, боевые искусства, DVDRip] VO (Виктор Береговых)

Ответить на тему
 
Автор Сообщение

user ®

Стаж: 11 лет

Сообщений: 15151

Пост Пост: #1 от 03-Мар-2014 19:00

[Цитировать]

Сентиментальный меченосец 2 / Возвращение сентиментального меченосца / Return Of The Sentimental Swordsman / Mo Jian Xia Qing
Страна: Гонконг
Жанр: боевые искусства
Год выпуска: 1981
Продолжительность: 01:41:07
Перевод: Одноголосый закадровый (Виктор Береговых)
Cубтитры: нет
Режиссер: Чу Юань / Chu Yuan
В ролях: Ти Лун, Александр Фу Шен, Ло Лье, Ю Хуа, Кара Хуэй, Дерек Йи, Энтони Лау, Чен Ли, Ку Фэн, Гу Гун Чун, Чен Мю, Юэ Ва, Там Бо
Описание: Прошло три года с момента событий первой части.Легендарный кинжал Ли Сюнь Хуань погряз в беспробудном пьянстве, а его друг А Фэй бросил пить и зажил тихой семейной жизнью с красавицей Сянь Эр.В это же время в мире боевых искусств появляется новый могущественный клан,глава которого намерен управлять боевым миром.И теперь только Ли Сюнь Хуань и А Фэй могут остановить зло...(В.Береговых)
Сэмпл: http://www.sendspace.com/file/jfr0dl
Качество видео: DVDRip
Формат видео: AVI
Видео: XviD, 720x320 (2.25:1), 29.970 fps, 1736 kbps avg, 0.251 bit/pixel
Аудио: AC3, 48.0 KHz, 192 Kbps, 2 channels

MediaInfo

General
Complete name : C:\Сентиментальный меченосец 2\Сентиментальный меченосец 2.avi
Format : AVI
Format/Info : Audio Video Interleave
File size : 1.37 GiB
Duration : 1h 41mn
Overall bit rate : 1 936 Kbps
Writing application : VirtualDubMod 1.5.4.1 (build 2178/release)
Writing library : VirtualDubMod build 2178/release
Video
ID : 0
Format : MPEG-4 Visual
Format profile : Simple@L3
Format settings, BVOP : Yes
Format settings, QPel : No
Format settings, GMC : No warppoints
Format settings, Matrix : Custom
Codec ID : XVID
Codec ID/Hint : XviD
Duration : 1h 41mn
Bit rate : 1 736 Kbps
Width : 720 pixels
Height : 320 pixels
Display aspect ratio : 2.25:1
Frame rate : 29.970 fps
Resolution : 24 bits
Colorimetry : 4:2:0
Scan type : Progressive
Bits/(Pixel*Frame) : 0.251
Stream size : 1.23 GiB (90%)
Writing library : XviD 1.0.1 (UTC 2004-06-05)
Audio
ID : 1
Format : AC-3
Format/Info : Audio Coding 3
Codec ID : 2000
Duration : 1h 41mn
Bit rate mode : Constant
Bit rate : 192 Kbps
Channel(s) : 2 channels
Channel positions : L R
Sampling rate : 48.0 KHz
Stream size : 139 MiB (10%)
Alignment : Split accross interleaves
Interleave, duration : 96 ms (2.88 video frames)
Interleave, preload duration : 96 ms
Language : Russian

Скриншот c названием фильма

Скриншоты

Скачать

Скачать торрент! Сентиментальный меченосец 2 / Возвращение сентиментального меченосца / Return Of The Sentimental Swordsman / Mo Jian Xia Qing (Чу Юань / Chu Yuan) [1981, Гонконг, боевые искусства, DVDRip] VO (Виктор Береговых)

Как скачивать? · Что такое торрент? · Рейтинг и ограничения

Сайт не распространяет и не хранит электронные версии произведений, а лишь предоставляет доступ к создаваемому пользователями каталогу ссылок на торрент-файлы, которые содержат только списки хеш-сумм

[Профиль] [ЛС]
Показать сообщения:    
Ответить на тему

Текущее время: Сегодня 18:00

Часовой пояс: GMT + 4



Вы не можете начинать темы
Вы не можете отвечать на сообщения
Вы не можете редактировать свои сообщения
Вы не можете удалять свои сообщения
Вы не можете голосовать в опросах
Вы не можете прикреплять файлы к сообщениям
Вы не можете скачивать файлы