Летняя жара / Summer Heat / Kuang Lian Shi (Ко Накахира / Koh Nakahira) [1968, Гонконг, драма, DVDRip] VO (Виктор Береговых)

Ответить на тему
 
Автор Сообщение

user ®

Стаж: 13 лет

Сообщений: 15071

Пост Пост: #1 от 02-Мар-2014 16:45

[Цитировать]

Летняя жара / Summer Heat / Kuang Lian Shi
Страна: Гонконг
Жанр: драма
Год выпуска: 1968
Продолжительность: 01:32:21
Перевод: Одноголосый закадровый (Виктор Береговых)
Cубтитры: нет
Режиссер: Ко Накахира / Koh Nakahira
В ролях: Дженни Ху, Чинь Хань, Ян Фань, Чинь Фен, Ма Сю Ин, Нг Ин, Ли Со Кей, Гай Юэнь
Описание: Сяо Чунь и Дэвид - родные братья. Сяо Чунь интеллигентный молодой человек,который верит в настоящую любовь,а Дэвид молодой повеса,прожигающий свою жизнь в ночных клубах и на дискотеках.Однажды они знакомятся с красивой девушкой Джуди.Оба брата влюбляются в нее.Джуди отвечает взаимностью Сяо Чуню,а Дэвид пытается сломать их отношения, что в конечном итоге приводит к кровавому финалу...(В.Береговых)
Сэмпл: http://www.sendspace.com/file/61zin7
Качество видео: DVDRip
Формат видео: AVI
Видео: XviD, 720x304 (2.35:1), 29.970 fps, 1920 kbps avg, 0.293 bit/pixel
Аудио: AC3, 48.0 KHz, 192 Kbps, 2 channels

MediaInfo

General
Complete name : C:\Летняя жара\Летняя жара.avi
Format : AVI
Format/Info : Audio Video Interleave
File size : 1.37 GiB
Duration : 1h 32mn
Overall bit rate : 2 120 Kbps
Writing application : VirtualDubMod 1.5.4.1 (build 2178/release)
Writing library : VirtualDubMod build 2178/release
Video
ID : 0
Format : MPEG-4 Visual
Format profile : Simple@L3
Format settings, BVOP : Yes
Format settings, QPel : No
Format settings, GMC : No warppoints
Format settings, Matrix : Custom
Codec ID : XVID
Codec ID/Hint : XviD
Duration : 1h 32mn
Bit rate : 1 920 Kbps
Width : 720 pixels
Height : 304 pixels
Display aspect ratio : 2.35:1
Frame rate : 29.970 fps
Resolution : 24 bits
Colorimetry : 4:2:0
Scan type : Progressive
Bits/(Pixel*Frame) : 0.293
Stream size : 1.24 GiB (91%)
Writing library : XviD 1.0.1 (UTC 2004-06-05)
Audio
ID : 1
Format : AC-3
Format/Info : Audio Coding 3
Codec ID : 2000
Duration : 1h 32mn
Bit rate mode : Constant
Bit rate : 192 Kbps
Channel(s) : 2 channels
Channel positions : L R
Sampling rate : 48.0 KHz
Stream size : 127 MiB (9%)
Alignment : Split accross interleaves
Interleave, duration : 96 ms (2.88 video frames)
Interleave, preload duration : 96 ms
Language : Russian

Скриншот c названием фильма

Скриншоты

Скачать

Скачать торрент! Летняя жара / Summer Heat / Kuang Lian Shi (Ко Накахира / Koh Nakahira) [1968, Гонконг, драма, DVDRip] VO (Виктор Береговых)

Как скачивать? · Что такое торрент? · Рейтинг и ограничения

Сайт не распространяет и не хранит электронные версии произведений, а лишь предоставляет доступ к создаваемому пользователями каталогу ссылок на торрент-файлы, которые содержат только списки хеш-сумм

[Профиль] [ЛС]
Показать сообщения:    
Ответить на тему

Текущее время: Сегодня 18:34

Часовой пояс: GMT + 4



Вы не можете начинать темы
Вы не можете отвечать на сообщения
Вы не можете редактировать свои сообщения
Вы не можете удалять свои сообщения
Вы не можете голосовать в опросах
Вы не можете прикреплять файлы к сообщениям
Вы не можете скачивать файлы