Злая кровь / Wicked blood (Марк Янг / Mark Young) [2014, США, Криминальная драма, HDRip] VO (datynet) + Original Eng

Ответить на тему
 
Автор Сообщение

user ®

Стаж: 7 лет 7 месяцев

Сообщений: 20008

Пост Пост: #1 от 02-Мар-2014 08:40

[Цитировать]

--Злая кровь / Wicked blood-- Страна: США
Жанр: Криминальная драма
Год выпуска: 2014
Продолжительность: 01:31:48-Перевод: Одноголосый закадровый |datynet|
Cубтитры: нет
Оригинальная аудиодорожка: английский-Режиссер: Марк Янг / Mark Young-В ролях: Эбигейл Бреслин, Алекса ПенаВега, Шон Бин, Джеймс Пьюрфой, Джейк Бьюзи
Описание: Ханна живет в глухой провинции в обществе дяди - наркомана и старшей сестры - стервы. Каждый вечер проходит за выяснением отношений с родней, а каждые выходные - обязательный поход на обед к другому дяде, местному авторитету и наркоторговцу. Единственная радость в жизни: посещение шахматного кружка. Однажды, проснувшись утром, Ханна окончательно понимает, что в этой дыре ей ничего не светит и решает бежать в поисках лучшей жизни. Но для начала, чтобы скопить денег на билет в счастливое будущее, устраивается работать наркокурьером.-
-Качество видео: HDRip
Формат видео: AVI-Видео: XviD, 720x384, 23.976 fps, 1 687 Kbps
Аудио: Russian: MP3, 44.1 KHz, 2 ch, 192 Kbps
Аудио 2: English: AC-3, 48.0 KHz, 2 ch, 224 Kbps
-

MediaInfo

General
Complete name : F:\BD torrent\mytorrentsup\Wicked.Blood.2014.L1.HDRip.avi
Format : AVI
Format/Info : Audio Video Interleave
File size : 1.36 GiB
Duration : 1h 31mn
Overall bit rate : 2 117 Kbps
Writing application : VirtualDubMod 1.5.10.2 (build 2540/release)
Writing library : VirtualDubMod build 2540/release
Video
ID : 0
Format : MPEG-4 Visual
Format profile : Advanced Simple@L5
Format settings, BVOP : 2
Format settings, QPel : No
Format settings, GMC : No warppoints
Format settings, Matrix : Default (H.263)
Codec ID : XVID
Codec ID/Hint : XviD
Duration : 1h 31mn
Bit rate : 1 687 Kbps
Width : 720 pixels
Height : 384 pixels
Display aspect ratio : 1.85:1
Frame rate : 23.976 fps
Color space : YUV
Chroma subsampling : 4:2:0
Bit depth : 8 bits
Scan type : Progressive
Compression mode : Lossy
Bits/(Pixel*Frame) : 0.254
Stream size : 1.08 GiB (80%)
Writing library : XviD 1.2.1 (UTC 2008-12-04)
Audio #1
ID : 1
Format : MPEG Audio
Format version : Version 1
Format profile : Layer 3
Codec ID : 55
Codec ID/Hint : MP3
Duration : 1h 31mn
Bit rate mode : Constant
Bit rate : 192 Kbps
Channel(s) : 2 channels
Sampling rate : 44.1 KHz
Compression mode : Lossy
Stream size : 126 MiB (9%)
Alignment : Split accross interleaves
Interleave, duration : 42 ms (1.00 video frame)
Interleave, preload duration : 500 ms
Audio #2
ID : 2
Format : AC-3
Format/Info : Audio Coding 3
Mode extension : CM (complete main)
Format settings, Endianness : Big
Codec ID : 2000
Duration : 1h 31mn
Bit rate mode : Constant
Bit rate : 224 Kbps
Channel(s) : 2 channels
Channel positions : Front: L R
Sampling rate : 48.0 KHz
Bit depth : 16 bits
Compression mode : Lossy
Stream size : 147 MiB (11%)
Alignment : Split accross interleaves
Interleave, duration : 42 ms (1.00 video frame)
Interleave, preload duration : 500 ms

Скриншот c названием фильма

Скриншоты


Скачать

Скачать торрент!

Как скачивать? · Что такое торрент? · Рейтинг и ограничения

Сайт не распространяет и не хранит электронные версии произведений, а лишь предоставляет доступ к создаваемому пользователями каталогу ссылок на торрент-файлы, которые содержат только списки хеш-сумм

[Профиль] [ЛС]
Показать сообщения:    
Ответить на тему

Текущее время: Сегодня 11:49

Часовой пояс: GMT + 4



Вы не можете начинать темы
Вы не можете отвечать на сообщения
Вы не можете редактировать свои сообщения
Вы не можете удалять свои сообщения
Вы не можете голосовать в опросах
Вы не можете прикреплять файлы к сообщениям
Вы не можете скачивать файлы