Любовь украшает жизнь / Сантош Субраманиям / Santhosh Subramaniam (М. Раджа / M. Raja) [2008, Индия, Мелодрама, DVDRip] MVO (Red Media) + Sub Rus (песни)

Ответить на тему
 
Автор Сообщение

user ®

Стаж: 12 лет

Сообщений: 15092

Пост Пост: #1 от 01-Мар-2014 23:10

[Цитировать]

Любовь украшает жизнь / Сантош Субраманиям / Santhosh Subramaniam
-Страна: Индия
Жанр: Мелодрама
Год выпуска: 2011
Продолжительность: 02:56:39-Перевод: Профессиональный (многоголосый закадровый) - Red Media [Индия ТВ]
Субтитры: Есть (только песни) [пер. ssshahi]--Режиссер: М. Раджа / M. Raja-В ролях: Джаям Рави, Дженелия Де'Суза, Гита, Нандини, Пракаш Радж, Сантханам, Саяджи Шинде--Описание: Сантош (Джаям Рави) очень зол, он идет по дороге и ругает всех отцов в мире. Почему? Этот фильм - печальная история его гнева. (с) ssshahi-Доп. информация: Ремейк фильма "Кукольный дом / Bommarillu".
Фильм снят на языке Tamili-- | IMDb--Качество видео: DVDRip
Формат видео: AVI-Видео: XviD, 704x288, 23,976 fps, 1047 Kbps
Аудио: MP3, 48 KHz, 2ch, 128 Kbps--Перевод субтитров: ssshahi (спасибо!)
Рип, сведение звука: soso4eg-- --

Скриншот с названием:


-

Скриншоты:


-

MediaInfo:

Общее
Полное имя : D:\[Релизы]\Lubov.Ukrashaet.Zhizn.2008.DVDRip.XviD-soso4eg.avi
Формат : AVI
Формат/Информация : Audio Video Interleave
Размер файла : 1,46 Гбайт
Продолжительность : 2 ч. 56 м.
Общий поток : 1184 Кбит/сек
Название фильма : Lubov.Ukrashaet.Zhizn.2011.DVDRip.XviD-soso4eg
Программа кодирования : VirtualDubMod 1.5.10.3 | www.virtualdub-fr.org || (build 2550/release)
Видео
Идентификатор : 0
Формат : MPEG-4 Visual
Профиль формата : Advanced Simple@L5
Параметр BVOP формата : 2
Параметр QPel формата : Нет
Параметр GMC формата : Без точки перехода
Параметр матрицы формата : Default (H.263)
Идентификатор кодека : XVID
Идентификатор кодека/Подсказка : XviD
Продолжительность : 2 ч. 56 м.
Битрейт : 1047 Кбит/сек
Ширина : 704 пикселя
Высота : 288 пикселей
Соотношение сторон : 2,40:1
Частота кадров : 23,976 кадра/сек
Цветовое пространство : YUV
Субдискретизация насыщенности : 4:2:0
Битовая глубина : 8 бит
Тип развёртки : Прогрессивная
Метод сжатия : С потерями
Бит/(Пиксели*Кадры) : 0.215
Размер потока : 1,29 Гбайт (88%)
Библиотека кодирования : XviD 1.2.1 (UTC 2008-12-04)
Аудио
Идентификатор : 1
Формат : MPEG Audio
Версия формата : Version 1
Профиль формата : Layer 3
Режим : Joint stereo
Расширение режима : MS Stereo
Идентификатор кодека : 55
Идентификатор кодека/Подсказка : MP3
Продолжительность : 2 ч. 56 м.
Вид битрейта : Постоянный
Битрейт : 128 Кбит/сек
Каналы : 2 канала
Частота : 48,0 КГц
Метод сжатия : С потерями
Размер потока : 162 Мбайт (11%)
Выравнивание : Соединение по промежуткам
Продолжительность промежутка : 42 мс. (1,00 видеокадр)
Время предзагрузки промежутка : 504 мс.
Скачать

Скачать торрент! Любовь украшает жизнь / Сантош Субраманиям / Santhosh Subramaniam (М. Раджа / M. Raja) [2008, Индия, Мелодрама, DVDRip] MVO (Red Media) + Sub Rus (песни)

Как скачивать? · Что такое торрент? · Рейтинг и ограничения

Сайт не распространяет и не хранит электронные версии произведений, а лишь предоставляет доступ к создаваемому пользователями каталогу ссылок на торрент-файлы, которые содержат только списки хеш-сумм

[Профиль] [ЛС]
Показать сообщения:    
Ответить на тему

Текущее время: Сегодня 19:16

Часовой пояс: GMT + 4



Вы не можете начинать темы
Вы не можете отвечать на сообщения
Вы не можете редактировать свои сообщения
Вы не можете удалять свои сообщения
Вы не можете голосовать в опросах
Вы не можете прикреплять файлы к сообщениям
Вы не можете скачивать файлы