Джеймси / Jamesy Boy (Тревор Уайт / Trevor White) [2014, США, драма, мелодрама, криминал, семейный, музыка, BDRip 720p] VO + Original (Eng)

Ответить на тему
 
Автор Сообщение

user ®

Стаж: 7 лет 7 месяцев

Сообщений: 20008

Пост Пост: #1 от 01-Мар-2014 23:10

[Цитировать]

Джеймси
Jamesy Boy
Страна: США
Год выпуска: 2014
Жанр: драма, мелодрама, криминал, семейный, музыка
Продолжительность: 01:49:34
Перевод: Одноголосый закадровый - datynet
субтитры: отсутствуют
Оригинальная аудиодорожка: английская-Режиссёр: Тревор Уайт : Trevor White
В главных ролях: Дженьюэри Джонс, Эд Харрис, Джейсон Айзекс, Эдуардо Норьега, Стивен Рут, Джейсон Алдин, Вик Браудер, Люче Рэйнс, Дилан Кенин, Кит Мэривезер-Описание: Реальная история Джеймса Бёрнса, который еще подростком связался с уличными бандами Денвера и в результате попал в тюрьму строгого режима. Но, несмотря на всё это, Джеймс всё же верит в светлое будущее.- -Качество: BDRip 720p
Формат: MKV
Видео кодек: AVC
Аудио кодек: АС3
Видео: 1280x536, 23.976 fps, ~5 252 kbps avg, 0.319 bit/pixel
Аудио #1: [RUS] 48 kHz, AC3 Dolby Digital, 2/0 (L,R) ch, ~192 kbps
Аудио #2: [ENG] 48 kHz, AC3 Dolby Digital, 3/2 (L,C,R,l,r) + LFE ch, ~448 kbps
навигация по главам: 16 глав

скриншоты


MediaInfo

Общее
Уникальный идентификатор : 215312534793839738658283954705365801257 (0xA1FBAF91A5797078A69E0A33A8E91929)
Полное имя : D:\Фильмы\Джеймси\Jamesy Boy.2014.BDRip 720p.mkv
Формат : Matroska
Версия формата : Version 4 / Version 2
Размер файла : 4,51 Гбайт
Продолжительность : 1 ч. 49 м.
Общий поток : 5893 Кбит/сек
Дата кодирования : UTC 2014-03-01 08:41:32
Программа кодирования : mkvmerge v6.7.0 ('Back to the Ground') 32bit built on Jan 8 2014 15:03:17
Библиотека кодирования : libebml v1.3.0 + libmatroska v1.4.1
Видео
Идентификатор : 1
Формат : AVC
Формат/Информация : Advanced Video Codec
Профиль формата : High@L4.1
Параметр CABAC формата : Да
Параметр ReFrames формата : 5 кадров
Идентификатор кодека : V_MPEG4/ISO/AVC
Продолжительность : 1 ч. 49 м.
Битрейт : 5252 Кбит/сек
Ширина : 1280 пикселей
Высота : 536 пикселей
Соотношение сторон : 2,40:1
Режим частоты кадров : Постоянный
Частота кадров : 23,976 кадра/сек
Цветовое пространство : YUV
Субдискретизация насыщенности : 4:2:0
Битовая глубина : 8 бит
Тип развёртки : Прогрессивная
Бит/(Пиксели*Кадры) : 0.319
Размер потока : 3,93 Гбайт (87%)
Библиотека кодирования : x264 core 140 r2377 1ca7bb9
Настройки программы : cabac=1 / ref=5 / deblock=1:0:0 / analyse=0x3:0x113 / me=umh / subme=8 / psy=1 / psy_rd=1.00:0.00 / mixed_ref=1 / me_range=16 / chroma_me=1 / trellis=1 / 8x8dct=1 / cqm=0 / deadzone=21,11 / fast_pskip=0 / chroma_qp_offset=-2 / threads=12 / lookahead_threads=2 / sliced_threads=0 / nr=0 / decimate=1 / interlaced=0 / bluray_compat=0 / constrained_intra=0 / bframes=3 / b_pyramid=2 / b_adapt=2 / b_bias=0 / direct=3 / weightb=1 / open_gop=0 / weightp=2 / keyint=240 / keyint_min=23 / scenecut=40 / intra_refresh=0 / rc_lookahead=50 / rc=2pass / mbtree=1 / bitrate=5252 / ratetol=1.0 / qcomp=0.60 / qpmin=0 / qpmax=69 / qpstep=4 / cplxblur=20.0 / qblur=0.5 / vbv_maxrate=62500 / vbv_bufsize=78125 / nal_hrd=none / filler=0 / ip_ratio=1.40 / aq=1:1.00
Язык : English
Default : Да
Forced : Нет
Аудио #1
Идентификатор : 2
Формат : AC-3
Формат/Информация : Audio Coding 3
Расширение режима : CM (complete main)
Параметр Endianness формата : Big
Идентификатор кодека : A_AC3
Продолжительность : 1 ч. 49 м.
Вид битрейта : Постоянный
Битрейт : 192 Кбит/сек
Каналы : 2 канала
Расположение каналов : Front: L R
Частота : 48,0 КГц
Битовая глубина : 16 бит
Метод сжатия : С потерями
Размер потока : 150 Мбайт (3%)
Заголовок : VO [datynet]
Язык : Russian
Default : Да
Forced : Нет
Аудио #2
Идентификатор : 3
Формат : AC-3
Формат/Информация : Audio Coding 3
Расширение режима : CM (complete main)
Параметр Endianness формата : Big
Идентификатор кодека : A_AC3
Продолжительность : 1 ч. 49 м.
Вид битрейта : Постоянный
Битрейт : 448 Кбит/сек
Каналы : 6 каналов
Расположение каналов : Front: L C R, Side: L R, LFE
Частота : 48,0 КГц
Битовая глубина : 16 бит
Метод сжатия : С потерями
Размер потока : 351 Мбайт (8%)
Заголовок : ENG
Язык : English
Default : Нет
Forced : Нет
Меню
00:00:00.000 : en:00:00:00.000
00:06:14.124 : en:00:06:14.124
00:12:15.068 : en:00:12:15.068
00:17:34.136 : en:00:17:34.136
00:24:48.529 : en:00:24:48.529
00:31:50.867 : en:00:31:50.867
00:38:51.663 : en:00:38:51.663
00:45:47.745 : en:00:45:47.745
00:52:40.824 : en:00:52:40.824
00:59:44.331 : en:00:59:44.331
01:08:42.160 : en:01:08:42.160
01:15:39.118 : en:01:15:39.118
01:20:36.165 : en:01:20:36.165
01:28:23.965 : en:01:28:23.965
01:35:22.634 : en:01:35:22.634
01:44:07.241 : en:01:44:07.241
Присутствует ненормативная лексика!
Скачать

Скачать торрент!

Как скачивать? · Что такое торрент? · Рейтинг и ограничения

Сайт не распространяет и не хранит электронные версии произведений, а лишь предоставляет доступ к создаваемому пользователями каталогу ссылок на торрент-файлы, которые содержат только списки хеш-сумм

[Профиль] [ЛС]
Показать сообщения:    
Ответить на тему

Текущее время: Сегодня 16:44

Часовой пояс: GMT + 4



Вы не можете начинать темы
Вы не можете отвечать на сообщения
Вы не можете редактировать свои сообщения
Вы не можете удалять свои сообщения
Вы не можете голосовать в опросах
Вы не можете прикреплять файлы к сообщениям
Вы не можете скачивать файлы