Тайна Рагнарока / Gaten Ragnarok (Миккель Бренне Саннемусе / Mikkel Braenne Sandemose) [2013, Норвегия, Приключения, фэнтези, боевик, BDRip 720p] VO (Чадов) + Original Nor + Rus Sub

Ответить на тему
 
Автор Сообщение

user ®

Стаж: 7 лет 7 месяцев

Сообщений: 20008

Пост Пост: #1 от 01-Мар-2014 23:10

[Цитировать]

Тайна Рагнарока / Gеten Ragnarok
Страна: Норвегия
Жанр: Приключения, фэнтези, боевик
Год выпуска: 2013
Продолжительность: 01:41:07
Перевод: Одноголосый закадровый Михаил Чадов по переводу С.Белькова
Cубтитры: русские (sofsub)
Оригинальная аудиодорожка: норвежская
Режиссер: Миккель Бренне Саннемусе / Mikkel Brжnne Sandemose
В ролях: Пол Сверре Хаген, Николай Клеве Брок, Cофия Хелин, Мария Аннетт Таннерёд Берглю, Юлиан Подольски, Бьёрн Сундквист
Описание: Археолог Сигур Свендсен уже много лет одержим историей судна викингов Осеберг. Единственная рунная надпись, найденная на этом корабле, гласит: «человек знает мало». Сигур уверен, что судно Осеберг скрывает ответ на тайну о Рагнароке — конце дней в скандинавской мифологии. Когда его друг Аллан находит подобные руны на камне с севера Норвегии, Сигур убеждается, что руны — это карта сокровищ. Вместе они отправляются в экспедицию, которая заводит их в «нейтральную зону» между Норвегией и Россией, которая не населена уже многие десятилетия. Здесь Сигур находит истинное значение рун, которые хранят ужасающую тайну.
Доп. информация: Озвучка доступна благодаря mihaildns и будулаюроманову. Работа со звуком - Perevodman
Сэмпл: http://multi-up.com/955439
Формат видео: MKV
Видео: 4541 Кбит/сек, 1280*534 (2,40:1), в 24,000 кадра/сек, AVC
Аудио: 1) 1509 Кбит/сек, 48,0 КГц, 24 бит, 6 каналов, DTC (Чадов)
Аудио: 2) 1509 Кбит/сек, 48,0 КГц, 24 бит, DTS (норвежский)
Субтитры: русские (sofsub)

MediaInfo

Общее
Уникальный идентификатор : 191159111815510619328104973445690936211 (0x8FCFE7DFCEF6C8C99901186FC841CB93)
Полное имя : L:\КИНОФИЛЬМЫ\Тайна Рагнарока.mkv
Формат : Matroska
Версия формата : Version 4 / Version 2
Размер файла : 5,43 Гбайт
Продолжительность : 1 ч. 41 м.
Общий поток : 7683 Кбит/сек
Название фильма : Release Group СПАМ
Дата кодирования : UTC 2014-03-01 09:01:04
Программа кодирования : mkvmerge v6.7.0 ('Back to the Ground') 64bit built on Jan 8 2014 15:10:52
Библиотека кодирования : libebml v1.3.0 libmatroska v1.4.1
Видео
Идентификатор : 1
Формат : AVC
Формат/Информация : Advanced Video Codec
Профиль формата : High@L4.1
Параметр CABAC формата : Да
Параметр ReFrames формата : 12 кадров
Идентификатор кодека : V_MPEG4/ISO/AVC
Продолжительность : 1 ч. 41 м.
Битрейт : 4512 Кбит/сек
Ширина : 1280 пикселей
Высота : 534 пикселя
Соотношение сторон : 2,40:1
Режим частоты кадров : Постоянный
Частота кадров : 24,000 кадра/сек
Цветовое пространство : YUV
Субдискретизация насыщенности : 4:2:0
Битовая глубина : 8 бит
Тип развёртки : Прогрессивная
Бит/(Пиксели*Кадры) : 0.275
Размер потока : 3,19 Гбайт (59%)
Язык : English
Default : Да
Forced : Нет
Аудио #1
Идентификатор : 2
Формат : DTS
Формат/Информация : Digital Theater Systems
Режим : 16
Параметр Endianness формата : Big
Идентификатор кодека : A_DTS
Продолжительность : 1 ч. 41 м.
Вид битрейта : Постоянный
Битрейт : 1509 Кбит/сек
Каналы : 6 каналов
Расположение каналов : Front: L C R, Side: L R, LFE
Частота : 48,0 КГц
Битовая глубина : 24 бит
Метод сжатия : С потерями
Размер потока : 1,07 Гбайт (20%)
Заголовок : Михаил Чадов
Язык : Russian
Default : Да
Forced : Да
Аудио #2
Идентификатор : 3
Формат : DTS
Формат/Информация : Digital Theater Systems
Режим : 16
Параметр Endianness формата : Big
Идентификатор кодека : A_DTS
Продолжительность : 1 ч. 41 м.
Вид битрейта : Постоянный
Битрейт : 1509 Кбит/сек
Каналы : 6 каналов
Расположение каналов : Front: L C R, Side: L R, LFE
Частота : 48,0 КГц
Битовая глубина : 24 бит
Метод сжатия : С потерями
Размер потока : 1,07 Гбайт (20%)
Язык : Norwegian
Default : Нет
Forced : Нет
Текст
Идентификатор : 4
Формат : UTF-8
Идентификатор кодека : S_TEXT/UTF8
Идентификатор кодека/Информация : UTF-8 Plain Text
Заголовок : russian.mannenr.gaten.ragnarok
Язык : Russian
Default : Да
Forced : Нет
Меню
00:00:00.000 : en:00:00:00.000
00:07:07.667 : en:00:07:07.667
00:16:23.167 : en:00:16:23.167
00:24:55.000 : en:00:24:55.000
00:33:32.542 : en:00:33:32.542
00:40:07.417 : en:00:40:07.417
00:52:19.250 : en:00:52:19.250
00:58:54.667 : en:00:58:54.667
01:07:07.000 : en:01:07:07.000
01:15:54.292 : en:01:15:54.292
01:26:06.375 : en:01:26:06.375
01:36:25.458 : en:01:36:25.458

Скриншот c названием фильма

Скриншоты



Скачать

Скачать торрент!

Как скачивать? · Что такое торрент? · Рейтинг и ограничения

Сайт не распространяет и не хранит электронные версии произведений, а лишь предоставляет доступ к создаваемому пользователями каталогу ссылок на торрент-файлы, которые содержат только списки хеш-сумм

[Профиль] [ЛС]
Показать сообщения:    
Ответить на тему

Текущее время: Сегодня 22:15

Часовой пояс: GMT + 4



Вы не можете начинать темы
Вы не можете отвечать на сообщения
Вы не можете редактировать свои сообщения
Вы не можете удалять свои сообщения
Вы не можете голосовать в опросах
Вы не можете прикреплять файлы к сообщениям
Вы не можете скачивать файлы