Кислород / Kislorod (Иван Вырыпаев) [2009, драма, DVDRip]

Ответить на тему
 
Автор Сообщение

user ®

Стаж: 7 лет 7 месяцев

Сообщений: 20008

Пост Пост: #1 от 01-Мар-2014 23:10

[Цитировать]

Кислород / Kislorod
Жанр: драма
Год выпуска: 2009
Продолжительность: 01:13:18
Режиссёр: Иван Вырыпаев
В ролях: Каролина Грушка, Алексей Филимонов, Константин Ханин, Всеволод Гриневский, Вадим Андиев, Юлия Шахмуратова, Виктор Рыжаков, Арина Маракулина, Алексей Злобин, Сергей Гущин
Описание: Фильм российского театрального режиссёра Ивана Вырыпаева, экранизация его одноименной пьесы.
Авторское представление десяти заповедей и заповедей блаженства на фоне современной молодёжи и её пороков.
Был обычный летний день. Санёк гулял по бульвару и с интересом рассматривал всех окружающих. Он повернул голову и увидел свободную, красивую, рыжеволосую девушку, ту, которая стала для него «чистым кислородом»...
Сэмпл: http://multi-up.com/955521
Ника, 2010 год
Номинации: Лучшая музыка
Кинотавр, 2009 год
Победитель:
Приз за режиссуру (Иван Вырыпаев)
Приз имени Микаэла Таривердиева за лучшую музыку к фильму
Приз Гильдии киноведов и кинокритиков
Номинации: Главный приз

Качество видео: DVDRip
Формат видео: AVI
Видео: XviD, 704х304, 2223 кбит/с, 25 fps
Аудио: AC3, 448 кбит/с, 3/2 (L,C,R,l,r) + LFE ch, 48 КГц

Альтернативный постер

MediaInfo

Общее
Полное имя : D:\Kislorod_2009.avi
Формат : AVI
Формат/Информация : Audio Video Interleave
Размер файла : 1,37 Гбайт
Продолжительность : 1 ч. 13 м.
Общий поток : 2682 Кбит/сек
Название фильма : KISLOROD.2009.XviD.DVDRip
Программа кодирования : Lavf52.33.0
Формат оригинала/Имя : KISLOROD
Видео
Идентификатор : 0
Формат : MPEG-4 Visual
Профиль формата : Simple@L3
Параметр BVOP формата : Нет
Параметр QPel формата : Нет
Параметр GMC формата : Без точки перехода
Параметр матрицы формата : Default (H.263)
Идентификатор кодека : XVID
Идентификатор кодека/Подсказка : XviD
Продолжительность : 1 ч. 13 м.
Битрейт : 2223 Кбит/сек
Ширина : 704 пикселя
Высота : 304 пикселя
Соотношение сторон : 2,35:1
Частота кадров : 25,000 кадров/сек
Цветовое пространство : YUV
Субдискретизация насыщенности : 4:2:0
Битовая глубина : 8 бит
Тип развёртки : Прогрессивная
Метод сжатия : С потерями
Бит/(Пиксели*Кадры) : 0.415
Размер потока : 1,14 Гбайт (83%)
Библиотека кодирования : XviD 1.2.1 (UTC 2008-12-04)
Аудио
Идентификатор : 1
Формат : AC-3
Формат/Информация : Audio Coding 3
Расширение режима : CM (complete main)
Параметр Endianness формата : Big
Идентификатор кодека : 2000
Продолжительность : 1 ч. 13 м.
Вид битрейта : Постоянный
Битрейт : 448 Кбит/сек
Каналы : 6 каналов
Расположение каналов : Front: L C R, Side: L R, LFE
Частота : 48,0 КГц
Битовая глубина : 16 бит
Метод сжатия : С потерями
Размер потока : 235 Мбайт (17%)
Выравнивание : Соединение по промежуткам
Продолжительность промежутка : 32 мс. (0,80 видеокадр)

Скриншот c названием фильма

Скриншоты

Скачать

Скачать торрент!

Как скачивать? · Что такое торрент? · Рейтинг и ограничения

Сайт не распространяет и не хранит электронные версии произведений, а лишь предоставляет доступ к создаваемому пользователями каталогу ссылок на торрент-файлы, которые содержат только списки хеш-сумм

[Профиль] [ЛС]
Показать сообщения:    
Ответить на тему

Текущее время: Сегодня 13:53

Часовой пояс: GMT + 4



Вы не можете начинать темы
Вы не можете отвечать на сообщения
Вы не можете редактировать свои сообщения
Вы не можете удалять свои сообщения
Вы не можете голосовать в опросах
Вы не можете прикреплять файлы к сообщениям
Вы не можете скачивать файлы