Суперзвезда / Топовая звезда / Top Star / Tobseuta (Пак Чжун Хун / Park Joong-hoon) [2013, Южная Корея, драма, HDRip] DVO

Ответить на тему
 
Автор Сообщение

user ®

Стаж: 13 лет

Сообщений: 15071

Пост Пост: #1 от 01-Мар-2014 04:00

[Цитировать]

Суперзвезда / Топовая звезда / Top Star / Tobseuta
Страна: Южная Корея
Жанр: драма
Год выпуска: 2013
Продолжительность: 01:54:22-Перевод: Любительский (двухголосый закадровый) den904 & Deadsno
Cубтитры: нет
Оригинальная аудиодорожка: нет-Режиссер: Пак Чжун Хун / Park Joong-hoon
В ролях: Еом Тхэ Ун, Ким Мин Чжун, Со И Хён, Ким Су Ро, Ан Сон Ги, О Сон Су-Описание: История менеджера, чей актер становится суперзвездой, а затем падает на самое дно…- -Релиз группы
-Качество видео: HDRip
Формат видео: AVI
Видео: XviD, 720x304 (2.37:1), 24 fps, 1629 kbps avg, 0.31 bit/pixel
Аудио: Русский MPEG layer 3, 192 kbps-

Доп. информация

Переводчик: Minhesha, Valera Keehl, Light Ice, shetavi & Pink Unicorn
Редактура: Byakuya
Рип, Звук: Public Enemy (((

MediaInfo

Format : AVI
Format/Info : Audio Video Interleave
File size : 1.46 GiB
Duration : 1h 54mn
Overall bit rate : 1 831 Kbps
Writing application : VirtualDubMod 1.5.10.3 | www.virtualdub-fr.org || (build 2550/release)
Writing library : VirtualDubMod build 2550/release
Video
ID : 0
Format : MPEG-4 Visual
Format profile : Advanced Simple@L5
Format settings, BVOP : 1
Format settings, QPel : No
Format settings, GMC : No warppoints
Format settings, Matrix : Custom
Codec ID : XVID
Codec ID/Hint : XviD
Duration : 1h 54mn
Bit rate : 1 630 Kbps
Width : 720 pixels
Height : 304 pixels
Display aspect ratio : 2.35:1
Frame rate : 24.000 fps
Color space : YUV
Chroma subsampling : 4:2:0
Bit depth : 8 bits
Scan type : Progressive
Compression mode : Lossy
Bits/(Pixel*Frame) : 0.310
Stream size : 1.30 GiB (89%)
Writing library : XviD 73
Audio
ID : 1
Format : MPEG Audio
Format version : Version 1
Format profile : Layer 3
Codec ID : 55
Codec ID/Hint : MP3
Duration : 1h 54mn
Bit rate mode : Constant
Bit rate : 192 Kbps
Channel(s) : 2 channels
Sampling rate : 48.0 KHz
Compression mode : Lossy
Stream size : 157 MiB (10%)
Alignment : Aligned on interleaves
Interleave, duration : 42 ms (1.00 video frame)
Interleave, preload duration : 504 ms

Скриншот с названием

Скриншоты

Скачать

Скачать торрент! Суперзвезда / Топовая звезда / Top Star / Tobseuta (Пак Чжун Хун / Park Joong-hoon) [2013, Южная Корея, драма, HDRip] DVO

Как скачивать? · Что такое торрент? · Рейтинг и ограничения

Сайт не распространяет и не хранит электронные версии произведений, а лишь предоставляет доступ к создаваемому пользователями каталогу ссылок на торрент-файлы, которые содержат только списки хеш-сумм

[Профиль] [ЛС]
Показать сообщения:    
Ответить на тему

Текущее время: Сегодня 11:45

Часовой пояс: GMT + 4



Вы не можете начинать темы
Вы не можете отвечать на сообщения
Вы не можете редактировать свои сообщения
Вы не можете удалять свои сообщения
Вы не можете голосовать в опросах
Вы не можете прикреплять файлы к сообщениям
Вы не можете скачивать файлы