Вам и не снилось... (Илья Фрэз) [1980, Мелодрама, DVDRip-AVC]

Ответить на тему
 
Автор Сообщение

user ®

Стаж: 7 лет 7 месяцев

Сообщений: 20008

Пост Пост: #1 от 28-Фев-2014 21:40

[Цитировать]

Вам и не снилось...
Жанр: Мелодрама
Год выпуска: 1980
Продолжительность: 01:26:15
Режиссёр: Илья Фрэз
В ролях: Татьяна Аксюта, Никита Михайловский, Елена Соловей, Ирина Мирошниченко, Любовь Соколова, Лидия Федосеева-Шукшина, Альберт Филозов, Евгений Герасимов, Леонид Филатов, Татьяна Пельтцер, Руфина Нифонтова, Екатерина Васильева, Елена Майорова
Описание: По одноименной повести Галины Щербаковой.
Знаменитый фильм 80-х гг. с изумительной музыкой Алексея Рыбникова о первой любви, не понятой и не оцененной взрослыми. История Ромео и Джульетты, снова вернувшихся в этот мир...
Между девятиклассниками Романом и Катей возникает нежное и светлое чувство. Мать юноши, не желающая понять юных влюбленных, обманом разлучает их. Несмотря на все препятствия, Рома и Катя стремятся быть вместе. Непонимание их чувств приводит к трагедии.
Качество видео: DVDRip-AVC
Формат видео: MKV
Видео: 716x568@764x568, (4:3), 25.000 fps, AVC, ~2235 Kbps
Аудио: 48 kHz, AC3 Dolby Digital, 2/0 (L,R) ch, ~192.00 kbps

MediaInfo

raw [info]: 716x568p 16:15 @ 25/1 fps (cfr)
x264 [info]: using SAR=16/15
x264 [info]: using cpu capabilities: MMX2 SSE2Fast SSSE3 SSE4.2 AVX
x264 [info]: profile High, level 4.1
x264 [info]: frame I:684 Avg QP:19.08 size: 56731
x264 [info]: frame P:27738 Avg QP:21.69 size: 24861
x264 [info]: frame B:100956 Avg QP:24.08 size: 7107-Общее
Уникальный идентификатор : 217826192787143543973649799569867185613 (0xA3DFCC79F7734B9CA80D4348AC969DCD)
Полное имя : D:\Вам и не снилось_1980-DVDRip-AVC.mkv
Формат : Matroska
Версия формата : Version 2
Размер файла : 1,46 Гбайт
Продолжительность : 1 ч. 26 м.
Общий поток : 2429 Кбит/сек
Дата кодирования : UTC 2014-02-28 16:58:32
Программа кодирования : mkvmerge v5.1.0 ('And so it goes') built on Nov 28 2011 23:58:28
Библиотека кодирования : libebml v1.2.3 + libmatroska v1.3.0
Видео
Идентификатор : 1
Формат : AVC
Формат/Информация : Advanced Video Codec
Профиль формата : High@L4.1
Параметр CABAC формата : Да
Параметр ReFrames формата : 14 кадров
Идентификатор кодека : V_MPEG4/ISO/AVC
Продолжительность : 1 ч. 26 м.
Битрейт : 2235 Кбит/сек
Ширина : 716 пикселей
Высота : 568 пикселей
Соотношение сторон : 4:3
Режим частоты кадров : Постоянный
Частота кадров : 25,000 кадров/сек
Цветовое пространство : YUV
Субдискретизация насыщенности : 4:2:0
Битовая глубина : 8 бит
Тип развёртки : Прогрессивная
Бит/(Пиксели*Кадры) : 0.220
Размер потока : 1,32 Гбайт (90%)
Библиотека кодирования : x264 core 142 r2389 956c8d8
Настройки программы : cabac=1 / ref=14 / deblock=1:-2:-2 / analyse=0x3:0x133 / me=umh / subme=11 / psy=1 / psy_rd=1.00:0.15 / mixed_ref=1 / me_range=24 / chroma_me=1 / trellis=2 / 8x8dct=1 / cqm=0 / deadzone=21,11 / fast_pskip=0 / chroma_qp_offset=-3 / threads=12 / lookahead_threads=1 / sliced_threads=0 / nr=0 / decimate=0 / interlaced=0 / bluray_compat=0 / constrained_intra=0 / bframes=6 / b_pyramid=2 / b_adapt=2 / b_bias=0 / direct=3 / weightb=1 / open_gop=0 / weightp=2 / keyint=250 / keyint_min=25 / scenecut=40 / intra_refresh=0 / rc_lookahead=60 / rc=2pass / mbtree=1 / bitrate=2235 / ratetol=1.0 / qcomp=0.67 / qpmin=0 / qpmax=39 / qpstep=4 / cplxblur=20.0 / qblur=0.5 / ip_ratio=1.30 / aq=1:1.00
Язык : English
Default : Да
Forced : Нет
Основные цвета : BT.601 PAL
Характеристики трансфера : BT.470 System B, BT.470 System G
Коэффициенты матрицы : BT.601
Аудио
Идентификатор : 2
Формат : AC-3
Формат/Информация : Audio Coding 3
Расширение режима : CM (complete main)
Параметр Endianness формата : Big
Идентификатор кодека : A_AC3
Продолжительность : 1 ч. 26 м.
Вид битрейта : Постоянный
Битрейт : 192 Кбит/сек
Каналы : 2 канала
Расположение каналов : Front: L R
Частота : 48,0 КГц
Битовая глубина : 16 бит
Метод сжатия : С потерями
Задержка видео : 120 мс.
Размер потока : 118 Мбайт (8%)
Язык : Russian
Default : Да
Forced : Нет
Скачать

Скачать торрент!

Как скачивать? · Что такое торрент? · Рейтинг и ограничения

Сайт не распространяет и не хранит электронные версии произведений, а лишь предоставляет доступ к создаваемому пользователями каталогу ссылок на торрент-файлы, которые содержат только списки хеш-сумм

[Профиль] [ЛС]
Показать сообщения:    
Ответить на тему

Текущее время: Сегодня 04:22

Часовой пояс: GMT + 4



Вы не можете начинать темы
Вы не можете отвечать на сообщения
Вы не можете редактировать свои сообщения
Вы не можете удалять свои сообщения
Вы не можете голосовать в опросах
Вы не можете прикреплять файлы к сообщениям
Вы не можете скачивать файлы