Сообщница / Accomplices / Blood and ties / Gong-beom (Гук Дон Сок / Gook Dong-seok) [2013, Южная Корея, триллер, драма, HDRip] DVO

Ответить на тему
 
Автор Сообщение

user ®

Стаж: 11 лет

Сообщений: 15151

Пост Пост: #1 от 27-Фев-2014 23:15

[Цитировать]

Сообщница / Accomplices / Blood and ties / Gong-beom
Страна: Южная Корея
Жанр: триллер, драма
Год выпуска: 2013
Продолжительность: 01:32:27-Перевод: Любительский (двухголосый закадровый) den904 & Deadsno
Cубтитры: нет
Оригинальная аудиодорожка: нет-Режиссер: Гук Дон Сок / Gook Dong-seok
В ролях: Сон Е Чжин, Ким Кап Су, Им Хён Чжун, Ким Кван Гё-Описание: Любящая дочь начинает подозревать своего отца в похищении маленького мальчика, которое было совершенно много лет назад.- -Релиз группы
-Качество видео: HDRip
Формат видео: AVI
Видео: XviD, 720x400 (1.80:1), 23.976 fps, 2159 kbps avg, 0.31 bit/pixel
Аудио: Русский MPEG layer 3, 128 kbps- -

Доп. информация

Переводчик: Ками
Рип, Звук: Public Enemy (((

MediaInfo

Format : AVI
Format/Info : Audio Video Interleave
File size : 1.48 GiB
Duration : 1h 32mn
Overall bit rate : 2 297 Kbps
Writing application : VirtualDubMod 1.5.10.2 (build 2540/release)
Writing library : VirtualDubMod build 2540/release
Video
ID : 0
Format : MPEG-4 Visual
Format profile : Advanced Simple@L5
Format settings, BVOP : 1
Format settings, QPel : No
Format settings, GMC : No warppoints
Format settings, Matrix : Custom
Codec ID : XVID
Codec ID/Hint : XviD
Duration : 1h 32mn
Bit rate : 2 160 Kbps
Width : 720 pixels
Height : 400 pixels
Display aspect ratio : 16:9
Frame rate : 23.976 fps
Color space : YUV
Chroma subsampling : 4:2:0
Bit depth : 8 bits
Scan type : Progressive
Compression mode : Lossy
Bits/(Pixel*Frame) : 0.313
Stream size : 1.39 GiB (94%)
Writing library : XviD 73
Audio
ID : 1
Format : MPEG Audio
Format version : Version 1
Format profile : Layer 3
Mode : Joint stereo
Codec ID : 55
Codec ID/Hint : MP3
Duration : 1h 32mn
Bit rate mode : Constant
Bit rate : 128 Kbps
Channel(s) : 2 channels
Sampling rate : 48.0 KHz
Compression mode : Lossy
Stream size : 84.6 MiB (6%)
Alignment : Aligned on interleaves
Interleave, duration : 42 ms (1.00 video frame)
Interleave, preload duration : 504 ms

Скриншот с названием

Скриншоты

Скачать

Скачать торрент! Сообщница / Accomplices / Blood and ties / Gong-beom (Гук Дон Сок / Gook Dong-seok) [2013, Южная Корея, триллер, драма, HDRip] DVO

Как скачивать? · Что такое торрент? · Рейтинг и ограничения

Сайт не распространяет и не хранит электронные версии произведений, а лишь предоставляет доступ к создаваемому пользователями каталогу ссылок на торрент-файлы, которые содержат только списки хеш-сумм

[Профиль] [ЛС]
Показать сообщения:    
Ответить на тему

Текущее время: Сегодня 21:53

Часовой пояс: GMT + 4



Вы не можете начинать темы
Вы не можете отвечать на сообщения
Вы не можете редактировать свои сообщения
Вы не можете удалять свои сообщения
Вы не можете голосовать в опросах
Вы не можете прикреплять файлы к сообщениям
Вы не можете скачивать файлы