День сурка / Groundhog Day (Харольд Рэмис / Harold Ramis) [1993, США, фэнтези, драма, мелодрама, комедия, BDRip 1080p] 3x MVO + DVO + 4x AVO + VO + Original Eng + Sub Rus, Eng

Ответить на тему
 
Автор Сообщение

user ®

Стаж: 7 лет 7 месяцев

Сообщений: 20008

Пост Пост: #1 от 27-Фев-2014 20:05

[Цитировать]

--День сурка / Groundhog Day«He's having the day of his life...over and over again.»- -Год выпуска: 1993
Страна: США
Жанр: фэнтези, драма, мелодрама, комедия
Продолжительность: 01:41:04
Перевод №1: Профессиональный (многоголосый закадровый, R5 Видеосервис)
Перевод №2: Профессиональный (многоголосый закадровый, ОРТ)
Перевод №3: Профессиональный (многоголосый закадровый, РТР)
Перевод №4: Профессиональный (двухголосый закадровый, Ren-TV)
Перевод №5: Авторский (одноголосый закадровый, А.Гаврилов)
Перевод №6: Авторский (одноголосый закадровый, Ю.Живов)
Перевод №7: Авторский (одноголосый закадровый, Визгунов - Мишин)
Перевод №8: Авторский (одноголосый закадровый, CDV - Matros)
Перевод №9: Одноголосый закадровый, М.Ошурков
Субтитры: Русские, Английские-Режиссер: Харольд Рэмис / Harold Ramis
Сценарий: Харольд Рэмис / Harold Ramis, Дэнни Рубин / Danny Rubin
Продюсер: Тревор Альберт / Trevor Albert, С. Эриксон / C.O. Erickson, Харольд Рэмис / Harold Ramis, Уитни Уайт / Whitney White
Оператор: Джон Бэйли / John Bailey
Композитор: Джордж Фентон / George Fenton
В ролях: Билл Мюррэй (Phil Connors,), Энди МакДауэлл (Rita), Крис Эллиот (Larry), Стивен Тоболовски (Ned Ryerson), Брайан Дойл-Мюррэй (Buster Green), Марита Герати (Nancy Taylor), Анджела Пэтон (Mrs. Lancaster), Рик Дукомман (Gus), Рик Овертон (Ralph), Робин Дьюк (Doris, the Waitress), Кэрол Бивинс (Anchorwoman), Уилли Гарсон (Kenny)-Описание: Телевизионный комментатор Фил Коннорс каждый год приезжает в маленький городок в штате Пенсильвания на празднование Дня сурка. Но на этот раз веселье рискует зайти слишком далеко. Время сыграло с ним злую шутку: оно взяло да и остановилось.
Теперь на календаре Фила чернеет одна и та же дата - 2 февраля, из которой он никак не может выбраться. Неунывающий ведущий пытается извлечь выгоду из своего комичного положения: впереди у него уйма времени и безмятежное предсказуемое будущее.
Отныне с ним не случится ничего плохого… и ничего хорошего. У Фила осталась одна заветная мечта, простая и незамысловатая - 3 февраля...
-
Доп. информация: Исходник [url=http://***/forum/viewtopic.php?t=1567458]День сурка / Groundhog Day (Харольд Рэмис / Harold Ramis) [1993 г., Комедия, мелодрама, Blu-Ray Disc][/url]-Качество: Blu-ray Rip 1080p
Формат: MKV
Видео: MPEG-4 AVC (H264), High Profile 4.1, 1920x1040, 23.976 fps, ~16400 kbps avg, bit/(pixel*frame) 0.343
Аудио №1: Russian: 48 kHz, AC3, 3/2 (L,C,R,l,r) + LFE ch, ~448.00 kbps avg //многоголосый закадровый (Видеосервис)
Аудио №2: Russian: 48 kHz, AC3, 3/2 (L,C,R,l,r) + LFE ch, ~448.00 kbps avg //многоголосый (закадровый, ОРТ)
Аудио №3: Russian: 48 kHz, AC3, 2.0 (L,R) ch, ~192.00 kbps avg //многоголосый (закадровый, РТР)
Аудио №4: Russian: 48 kHz, AC3, 2.0 (L,R) ch, ~192.00 kbps avg //двухголосый (закадровый, Ren-TV)
Аудио №5: Russian: 48 kHz, DTS, 3/2 (L,C,R,l,r) + LFE ch, ~1510.00 kbps avg //одноголосый (закадровый, А.Гаврилов)
Аудио №6: Russian: 48 kHz, AC3, 2.0 (L,R) ch, ~192.00 kbps avg //одноголосый (закадровый, Ю.Живов)
Аудио №7: Russian: 48 kHz, AC3, 2.0 (L,R) ch, ~192.00 kbps avg //одноголосый (закадровый, Визгунов - Мишин)
Аудио №8: Russian: 48 kHz, AC3, 2.0 (L,R) ch, ~192.00 kbps avg //одноголосый (закадровый, CDV - Matros)
Аудио №9: Russian: 48 kHz, AC3, 2.0 (L,R) ch, ~192.00 kbps avg //одноголосый (закадровый, М.Ошурков)
Аудио №10: English: 48 kHz, DTS, 3/2 (L,C,R,l,r) + LFE ch, ~1510.00 kbps avg //оригинал
Аудио №11: English: 48 kHz, AC3, 2.0 (L,R) ch, ~192.00 kbps avg //commentary by Harold Ramis
Субтитры: Russian (R5), Russian (Alex Raynor), Russian (sunny-sko), Russian (Игорь Гиндин), Russian (Gelula & Co), English (Softsub SRT), English (ASS)
Навигация по главам: есть-

Скриншоты

Blu-Ray vs Rip






MediaInfo

F:\Groundhog Day [День сурка] (1993) 1920x1040 BDRip RusEngSubsChpt.mkv
General
Unique ID : 239239342546521169702846752398614734136 (0xB3FBD245362EFF398EFCE3D1F0FC2538)
Complete name : F:\Groundhog Day [День сурка] (1993) 1920x1040 BDRip RusEngSubsChpt.mkv
Format : Matroska
Format version : Version 4 / Version 2
File size : 15.3 GiB
Duration : 1h 41mn
Overall bit rate : 21.7 Mbps
Movie name : -=RbM=-
Encoded date : UTC 2014-02-27 00:23:20
Writing application : mkvmerge v6.6.0 ('The Edge Of The In Between') built on Dec 1 2013 17:55:00
Writing library : libebml v1.3.0 + libmatroska v1.4.1
Video #1
ID : 1
Format : AVC
Format/Info : Advanced Video Codec
Format profile : High@L4.1
Format settings, CABAC : Yes
Format settings, ReFrames : 4 frames
Codec ID : V_MPEG4/ISO/AVC
Duration : 1h 41mn
Bit rate : 16.4 Mbps
Width : 1 920 pixels
Height : 1 040 pixels
Display aspect ratio : 1.85:1
Frame rate mode : Constant
Frame rate : 23.976 fps
Color space : YUV
Chroma subsampling : 4:2:0
Bit depth : 8 bits
Scan type : Progressive
Bits/(Pixel*Frame) : 0.343
Stream size : 11.3 GiB (74%)
Title : 70% of the original
Writing library : x264 core 142 r2389+41 02cb608 tMod [8-bit@all X86_64]
Encoding settings : cabac=1 / ref=4 / deblock=1:-1:-1 / analyse=0x3:0x133 / me=umh / subme=11 / psy=1 / fade_compensate=0.00 / psy_rd=1.00:0.00 / mixed_ref=1 / me_range=32 / chroma_me=1 / trellis=2 / 8x8dct=1 / cqm=0 / deadzone=21,11 / fast_pskip=0 / chroma_qp_offset=-2 / threads=12 / lookahead_threads=3 / sliced_threads=0 / nr=0 / decimate=0 / interlaced=0 / bluray_compat=0 / constrained_intra=0 / fgo=0 / bframes=10 / b_pyramid=2 / b_adapt=2 / b_bias=0 / direct=3 / weightb=1 / open_gop=0 / weightp=2 / keyint=250 / keyint_min=23 / scenecut=40 / intra_refresh=0 / rc_lookahead=80 / rc=2pass / mbtree=1 / bitrate=16400 / ratetol=1.0 / qcomp=0.70 / qpmin=0:0:0 / qpmax=69:69:69 / qpstep=4 / cplxblur=20.0 / qblur=0.5 / ip_ratio=1.40 / aq=3:0.60 / aq-sensitivity=10.00 / aq-factor=1.00:1.00:1.00 / aq2=0 / aq3=0
Language : English
Default : Yes
Forced : No
Audio #2
ID : 2
Format : AC-3
Format/Info : Audio Coding 3
Mode extension : CM (complete main)
Format settings, Endianness : Big
Codec ID : A_AC3
Duration : 1h 41mn
Bit rate mode : Constant
Bit rate : 448 Kbps
Channel(s) : 6 channels
Channel positions : Front: L C R, Side: L R, LFE
Sampling rate : 48.0 KHz
Bit depth : 16 bits
Compression mode : Lossy
Stream size : 324 MiB (2%)
Title : MVO AC3 5.1ch 448kbps (Видеосервис)
Language : Russian
Default : Yes
Forced : No
Audio #3
ID : 3
Format : AC-3
Format/Info : Audio Coding 3
Mode extension : CM (complete main)
Format settings, Endianness : Big
Codec ID : A_AC3
Duration : 1h 41mn
Bit rate mode : Constant
Bit rate : 448 Kbps
Channel(s) : 6 channels
Channel positions : Front: L C R, Side: L R, LFE
Sampling rate : 48.0 KHz
Bit depth : 16 bits
Compression mode : Lossy
Stream size : 324 MiB (2%)
Title : MVO AC3 5.1ch 448kbps (ОРТ)
Language : Russian
Default : No
Forced : No
Audio #4
ID : 4
Format : AC-3
Format/Info : Audio Coding 3
Mode extension : CM (complete main)
Format settings, Endianness : Big
Codec ID : A_AC3
Duration : 1h 41mn
Bit rate mode : Constant
Bit rate : 192 Kbps
Channel(s) : 2 channels
Channel positions : Front: L R
Sampling rate : 48.0 KHz
Bit depth : 16 bits
Compression mode : Lossy
Stream size : 139 MiB (1%)
Title : MVO AC3 2.0ch 192kbps (РТР)
Language : Russian
Default : No
Forced : No
Audio #5
ID : 5
Format : AC-3
Format/Info : Audio Coding 3
Mode extension : CM (complete main)
Format settings, Endianness : Big
Codec ID : A_AC3
Duration : 1h 41mn
Bit rate mode : Constant
Bit rate : 192 Kbps
Channel(s) : 2 channels
Channel positions : Front: L R
Sampling rate : 48.0 KHz
Bit depth : 16 bits
Compression mode : Lossy
Stream size : 139 MiB (1%)
Title : DVO AC3 2.0ch 192kbps (Ren-TV)
Language : Russian
Default : No
Forced : No
Audio #6
ID : 6
Format : DTS
Format/Info : Digital Theater Systems
Mode : 16
Format settings, Endianness : Big
Codec ID : A_DTS
Duration : 1h 41mn
Bit rate mode : Constant
Bit rate : 1 510 Kbps
Channel(s) : 6 channels
Channel positions : Front: L C R, Side: L R, LFE
Sampling rate : 48.0 KHz
Bit depth : 24 bits
Compression mode : Lossy
Stream size : 1.07 GiB (7%)
Title : AVO DTS 5.1ch 1510kbps (А.Гаврилов)
Language : Russian
Default : No
Forced : No
Audio #7
ID : 7
Format : AC-3
Format/Info : Audio Coding 3
Mode extension : CM (complete main)
Format settings, Endianness : Big
Codec ID : A_AC3
Duration : 1h 41mn
Bit rate mode : Constant
Bit rate : 192 Kbps
Channel(s) : 2 channels
Channel positions : Front: L R
Sampling rate : 48.0 KHz
Bit depth : 16 bits
Compression mode : Lossy
Stream size : 139 MiB (1%)
Title : AVO AC3 2.0ch 192kbps (Ю.Живов)
Language : Russian
Default : No
Forced : No
Audio #8
ID : 8
Format : AC-3
Format/Info : Audio Coding 3
Mode extension : CM (complete main)
Format settings, Endianness : Big
Codec ID : A_AC3
Duration : 1h 41mn
Bit rate mode : Constant
Bit rate : 192 Kbps
Channel(s) : 2 channels
Channel positions : Front: L R
Sampling rate : 48.0 KHz
Bit depth : 16 bits
Compression mode : Lossy
Stream size : 139 MiB (1%)
Title : AVO AC3 2.0ch 192kbps (Визгунов - Мишин)
Language : Russian
Default : No
Forced : No
Audio #9
ID : 9
Format : AC-3
Format/Info : Audio Coding 3
Mode extension : CM (complete main)
Format settings, Endianness : Big
Codec ID : A_AC3
Duration : 1h 41mn
Bit rate mode : Constant
Bit rate : 192 Kbps
Channel(s) : 2 channels
Channel positions : Front: L R
Sampling rate : 48.0 KHz
Bit depth : 16 bits
Compression mode : Lossy
Stream size : 139 MiB (1%)
Title : AVO AC3 2.0ch 192kbps (CDV - Matros)
Language : Russian
Default : No
Forced : No
Audio #10
ID : 10
Format : AC-3
Format/Info : Audio Coding 3
Mode extension : CM (complete main)
Format settings, Endianness : Big
Codec ID : A_AC3
Duration : 1h 41mn
Bit rate mode : Constant
Bit rate : 192 Kbps
Channel(s) : 2 channels
Channel positions : Front: L R
Sampling rate : 48.0 KHz
Bit depth : 16 bits
Compression mode : Lossy
Stream size : 139 MiB (1%)
Title : VO AC3 2.0ch 192kbps (М.Ошурков)
Language : Russian
Default : No
Forced : No
Audio #11
ID : 11
Format : DTS
Format/Info : Digital Theater Systems
Mode : 16
Format settings, Endianness : Big
Codec ID : A_DTS
Duration : 1h 41mn
Bit rate mode : Constant
Bit rate : 1 509 Kbps
Channel(s) : 6 channels
Channel positions : Front: L C R, Side: L R, LFE
Sampling rate : 48.0 KHz
Bit depth : 16 bits
Compression mode : Lossy
Stream size : 1.07 GiB (7%)
Title : Original DTS 5.1ch 1510kbps
Language : English
Default : No
Forced : No
Audio #12
ID : 12
Format : AC-3
Format/Info : Audio Coding 3
Format profile : Dolby Digital
Mode extension : CM (complete main)
Format settings, Endianness : Big
Codec ID : A_AC3
Duration : 1h 41mn
Bit rate mode : Constant
Bit rate : 192 Kbps
Channel(s) : 2 channels
Channel positions : Front: L R
Sampling rate : 48.0 KHz
Bit depth : 16 bits
Compression mode : Lossy
Stream size : 139 MiB (1%)
Title : Original AC3 2.0ch 192kbps (commentary by Harold Ramis)
Language : English
Default : No
Forced : No
Text #13
ID : 13
Format : UTF-8
Codec ID : S_TEXT/UTF8
Codec ID/Info : UTF-8 Plain Text
Title : R5
Language : Russian
Default : No
Forced : No
Text #14
ID : 14
Format : UTF-8
Codec ID : S_TEXT/UTF8
Codec ID/Info : UTF-8 Plain Text
Title : Alex Raynor
Language : Russian
Default : No
Forced : No
Text #15
ID : 15
Format : UTF-8
Codec ID : S_TEXT/UTF8
Codec ID/Info : UTF-8 Plain Text
Title : sunny-sko
Language : Russian
Default : No
Forced : No
Text #16
ID : 16
Format : UTF-8
Codec ID : S_TEXT/UTF8
Codec ID/Info : UTF-8 Plain Text
Title : Игорь Гиндин
Language : Russian
Default : No
Forced : No
Text #17
ID : 17
Format : UTF-8
Codec ID : S_TEXT/UTF8
Codec ID/Info : UTF-8 Plain Text
Title : Gelula & Co
Language : Russian
Default : No
Forced : No
Text #18
ID : 18
Format : UTF-8
Codec ID : S_TEXT/UTF8
Codec ID/Info : UTF-8 Plain Text
Language : English
Default : No
Forced : No
Text #19
ID : 19
Format : ASS
Codec ID : S_TEXT/ASS
Codec ID/Info : Advanced Sub Station Alpha
Compression mode : Lossless
Language : English
Default : No
Forced : No
Menu
00:00:00.000 : ru:Начало
00:02:38.241 : ru:Новый продюссер
00:03:39.636 : ru:Панксутони
00:07:31.493 : ru:День сурка
00:12:10.313 : ru:Индюшачья Горка
00:18:17.179 : ru:День сурка 2
00:22:30.057 : ru:Индюшачья Горка 2
00:25:20.227 : ru:День сурка 3
00:26:25.918 : ru:Индюшачья Горка 3
00:28:28.206 : ru:Фил обращается за помощью
00:34:32.654 : ru:День сурка 4
00:35:55.320 : ru:Больше не волнуюсь
00:37:59.319 : ru:Фил знакомится с Нэнси
00:38:46.157 : ru:День сурка 5
00:41:00.541 : ru:Ограбление
00:43:17.637 : ru:День сурка 6
00:44:17.864 : ru:Идеальный мужчина
00:57:07.507 : ru:Индюшачья Горка?
01:00:29.292 : ru:Фил похищает Фила
01:06:08.047 : ru:Убеждение Риты
01:15:25.646 : ru:Новый имидж Фила
01:16:47.686 : ru:Приобщение к искусству
01:19:59.294 : ru:История старика
01:23:07.483 : ru:Ангел-хранитель
01:26:28.725 : ru:Рок-маниноff
01:30:03.481 : ru:Фил на продажу
01:32:49.355 : ru:Милый образ
01:34:51.019 : ru:Сегодня уже завтра!

x264 log

x264 [info]: frame I:834 Avg QP:16.36 size:260434 PSNR Mean Y:48.07 U:50.62 V:51.63 Avg:48.84 Global:48.65
x264 [info]: frame P:28635 Avg QP:19.32 size:132150 PSNR Mean Y:45.05 U:49.18 V:50.30 Avg:46.11 Global:45.94
x264 [info]: frame B:115923 Avg QP:20.78 size: 72680 PSNR Mean Y:43.93 U:48.65 V:49.97 Avg:45.08 Global:44.94
x264 [info]: consecutive B-frames: 1.1% 2.5% 4.2% 20.1% 15.5% 27.8% 10.6% 14.8% 2.4% 0.4% 0.5%
x264 [info]: mb I I16..4: 3.1% 75.6% 21.3%
x264 [info]: mb P I16..4: 0.6% 17.2% 1.5% P16..4: 27.4% 35.6% 11.3% 2.1% 0.2% skip: 4.2%
x264 [info]: mb B I16..4: 0.1% 3.0% 0.2% B16..8: 44.8% 24.1% 4.5% direct:11.9% skip:11.6% L0:43.1% L1:41.2% BI:15.7%
x264 [info]: 8x8 transform intra:89.6% inter:48.1%
x264 [info]: direct mvs spatial:98.9% temporal:1.1%
x264 [info]: coded y,uvDC,uvAC intra: 96.0% 83.3% 47.4% inter: 64.3% 39.2% 6.5%
x264 [info]: i16 v,h,dc,p: 46% 17% 10% 27%
x264 [info]: i8 v,h,dc,ddl,ddr,vr,hd,vl,hu: 8% 6% 7% 11% 15% 14% 12% 13% 12%
x264 [info]: i4 v,h,dc,ddl,ddr,vr,hd,vl,hu: 14% 9% 7% 8% 13% 14% 12% 11% 12%
x264 [info]: i8c dc,h,v,p: 39% 24% 21% 17%
x264 [info]: Weighted P-Frames: Y:3.5% UV:1.4%
x264 [info]: ref P L0: 48.1% 11.8% 27.2% 12.2% 0.7% 0.0%
x264 [info]: ref B L0: 88.3% 9.4% 2.3%
x264 [info]: ref B L1: 93.2% 6.8%
x264 [info]: SSIM Mean Y:0.9732685 (15.730db)
x264 [info]: PSNR Mean Y:44.177 U:48.768 V:50.045 Avg:45.307 Global:45.138 kb/s:16393.75
x264 [info]: encoded 145392 frames, 4.413 fps, 16393.75 kb/s, 11851 MB
x264 [info]: ended at Tue Feb 25 16:39:29 2014
x264 [info]: encoding duration 9:09:06
Скачать

Скачать торрент!

Как скачивать? · Что такое торрент? · Рейтинг и ограничения

Сайт не распространяет и не хранит электронные версии произведений, а лишь предоставляет доступ к создаваемому пользователями каталогу ссылок на торрент-файлы, которые содержат только списки хеш-сумм

[Профиль] [ЛС]
Показать сообщения:    
Ответить на тему

Текущее время: Сегодня 01:48

Часовой пояс: GMT + 4



Вы не можете начинать темы
Вы не можете отвечать на сообщения
Вы не можете редактировать свои сообщения
Вы не можете удалять свои сообщения
Вы не можете голосовать в опросах
Вы не можете прикреплять файлы к сообщениям
Вы не можете скачивать файлы