Ангар 18 / Hangar 18 (Джеймс Л. Конуэй / James L. Conway) [1980, США, фантастика, боевик, триллер, BDRip 1080p] Dub (Советский Дубляж) + MVO (НТВ+) + AVO (Сербин) + Original Eng

Ответить на тему
 
Автор Сообщение

user ®

Стаж: 7 лет 7 месяцев

Сообщений: 20008

Пост Пост: #1 от 27-Фев-2014 02:20

[Цитировать]

Ангар 18 / Hangar 18
Страна: США
Жанр: фантастика, боевик, триллер
Год выпуска: 1980
Продолжительность: 01:37:30
Перевод 1: Профессиональный (дублированный) (Советский Дубляж)
Перевод 2: Профессиональный (многоголосый закадровый) (НТВ )
Перевод 3: Авторский (одноголосый закадровый) Юрий Сербин
Cубтитры: нет
Оригинальная аудиодорожка: английский
Режиссер: Джеймс Л. Конуэй / James L. Conway
В ролях: Гари Коллинз, Роберт Вон, Джеймс Хэмптон, Филип Эбботт, Джозеф Кампанелла, Памела Беллвуд, Том Хэллик, Стивен Китс, Уильям Шэллерт, Дэррен МакГэвин
Описание: Во время запуска спутника с космического челнока NASA происходит катастрофа. Спутник сталкивается с НЛО. Неопознанный объект совершает аварийную посадку на Земле и попадает в руки спецслужб правительства.
Астронавты, ставшие свидетелями посадки НЛО, вернувшись на Землю, пытаются узнать правду о загадочном объекте, встреченном на орбите. Спецслужбы готовы пойти на любые действия, чтобы ни один из людей не узнал о тайне Ангара 18 - места, где спрятан инопланетный корабль

Доп. информация: Сохранены оригинальные чаптеры как на Blu-ray.
Сэмпл: http://sendfile.su/946222
Тип релиза: BDRip 1080p
Контейнер: MKV
Видео: AVC 1920 x 1080 (16:9) 23,976 fps, 10.6 Mbps
Аудио 1: Russian 48 kHz, AC3 Dolby Digital , 2/0 (L,R) ch, ~192 kbps (Советский Дубляж)
Аудио 2: Russian 48 kHz, AC3 Dolby Digital , 2/0 (L,R) ch, ~192 kbps (двухголосый закадровый НТВ )
Аудио 3: Russian 48 kHz, AC3 Dolby Digital , 2/0 (L,R) ch, ~192 kbps (Авторский одноголосый закадровый, Ю. Сербин)
Аудио 4: English 48 kHz, AC3 Dolby Digital , 2/0 (L,R) ch, ~192 kbps

MediaInfo

Общее
Уникальный идентификатор : 242982530934102516958814102852131817087 (0xB6CCBBB4E39BEA6F9D17E6B548AB067F)
Полное имя : D:\Hangar 18\hangar_18 .BDRip1080p.mkv
Формат : Matroska
Версия формата : Version 2
Размер файла : 7,72 Гбайт
Продолжительность : 1 ч. 37 м.
Общий поток : 11,3 Мбит/сек
Название фильма : hangar18 .BDRip1080p
Дата кодирования : UTC 2014-02-26 12:06:52
Программа кодирования : mkvmerge v5.6.0 ('Kenya Kane') built on May 27 2012 16:44:04
Библиотека кодирования : libebml v1.2.3 libmatroska v1.3.0
Attachment : Yes
Видео
Идентификатор : 1
Формат : AVC
Формат/Информация : Advanced Video Codec
Профиль формата : High@L4.1
Параметр CABAC формата : Да
Параметр ReFrames формата : 4 кадра
Идентификатор кодека : V_MPEG4/ISO/AVC
Продолжительность : 1 ч. 37 м.
Битрейт : 10,6 Мбит/сек
Ширина : 1920 пикселей
Высота : 1080 пикселей
Соотношение сторон : 16:9
Режим частоты кадров : Постоянный
Частота кадров : 23,976 кадра/сек
Цветовое пространство : YUV
Субдискретизация насыщенности : 4:2:0
Битовая глубина : 8 бит
Тип развёртки : Прогрессивная
Бит/(Пиксели*Кадры) : 0.213
Размер потока : 7,05 Гбайт (91%)
Заголовок : hangar_18_[ СПАМ
Библиотека кодирования : x264 core 138 r2356 a1d3d17
Настройки программы : cabac=1 / ref=4 / deblock=1:-3:-3 / analyse=0x3:0x113 / me=umh / subme=10 / psy=1 / psy_rd=1.00:0.05 / mixed_ref=1 / me_range=32 / chroma_me=1 / trellis=2 / 8x8dct=1 / cqm=0 / deadzone=21,11 / fast_pskip=0 / chroma_qp_offset=-3 / threads=9 / lookahead_threads=1 / sliced_threads=0 / nr=0 / decimate=0 / interlaced=0 / bluray_compat=0 / constrained_intra=0 / bframes=8 / b_pyramid=2 / b_adapt=2 / b_bias=0 / direct=3 / weightb=1 / open_gop=0 / weightp=2 / keyint=240 / keyint_min=24 / scenecut=40 / intra_refresh=0 / rc_lookahead=40 / rc=2pass / mbtree=1 / bitrate=10572 / ratetol=1.0 / qcomp=0.60 / qpmin=0 / qpmax=69 / qpstep=4 / cplxblur=20.0 / qblur=0.5 / ip_ratio=1.40 / aq=1:1.00
Язык : English
Default : Нет
Forced : Нет
Аудио #1
Идентификатор : 2
Формат : AC-3
Формат/Информация : Audio Coding 3
Расширение режима : CM (complete main)
Параметр Endianness формата : Big
Идентификатор кодека : A_AC3
Продолжительность : 1 ч. 37 м.
Вид битрейта : Постоянный
Битрейт : 192 Кбит/сек
Каналы : 2 канала
Расположение каналов : Front: L R
Частота : 48,0 КГц
Битовая глубина : 16 бит
Метод сжатия : С потерями
Размер потока : 134 Мбайт (2%)
Заголовок : [Профессиональный (полное дублирование)]
Язык : Russian
Default : Нет
Forced : Нет
Аудио #2
Идентификатор : 3
Формат : AC-3
Формат/Информация : Audio Coding 3
Расширение режима : CM (complete main)
Параметр Endianness формата : Big
Идентификатор кодека : A_AC3
Продолжительность : 1 ч. 37 м.
Вид битрейта : Постоянный
Битрейт : 192 Кбит/сек
Каналы : 2 канала
Расположение каналов : Front: L R
Частота : 48,0 КГц
Битовая глубина : 16 бит
Метод сжатия : С потерями
Размер потока : 134 Мбайт (2%)
Заголовок : [Профессиональный (двухголосый), НТВ ]
Язык : Russian
Default : Нет
Forced : Нет
Аудио #3
Идентификатор : 4
Формат : AC-3
Формат/Информация : Audio Coding 3
Расширение режима : CM (complete main)
Параметр Endianness формата : Big
Идентификатор кодека : A_AC3
Продолжительность : 1 ч. 37 м.
Вид битрейта : Постоянный
Битрейт : 192 Кбит/сек
Каналы : 2 канала
Расположение каналов : Front: L R
Частота : 48,0 КГц
Битовая глубина : 16 бит
Метод сжатия : С потерями
Размер потока : 134 Мбайт (2%)
Заголовок : [Авторский (одноголосый)( Ю.Сербин)]
Язык : Russian
Default : Нет
Forced : Нет
Аудио #4
Идентификатор : 5
Формат : AC-3
Формат/Информация : Audio Coding 3
Расширение режима : CM (complete main)
Параметр Endianness формата : Big
Идентификатор кодека : A_AC3
Продолжительность : 1 ч. 37 м.
Вид битрейта : Постоянный
Битрейт : 192 Кбит/сек
Каналы : 2 канала
Расположение каналов : Front: L R
Частота : 48,0 КГц
Битовая глубина : 16 бит
Метод сжатия : С потерями
Размер потока : 134 Мбайт (2%)
Заголовок : [Оригинал]
Язык : English
Default : Нет
Forced : Нет
Меню
00:00:00.000 : en:00:00:00.000
00:09:18.475 : en:00:09:18.475
00:22:47.199 : en:00:22:47.199
00:36:22.555 : en:00:36:22.555
00:45:44.408 : en:00:45:44.408
01:00:58.780 : en:01:00:58.780
01:10:01.406 : en:01:10:01.406
01:17:40.739 : en:01:17:40.739

Скриншоты

Скачать

Скачать торрент!

Как скачивать? · Что такое торрент? · Рейтинг и ограничения

Сайт не распространяет и не хранит электронные версии произведений, а лишь предоставляет доступ к создаваемому пользователями каталогу ссылок на торрент-файлы, которые содержат только списки хеш-сумм

[Профиль] [ЛС]
Показать сообщения:    
Ответить на тему

Текущее время: Сегодня 22:30

Часовой пояс: GMT + 4



Вы не можете начинать темы
Вы не можете отвечать на сообщения
Вы не можете редактировать свои сообщения
Вы не можете удалять свои сообщения
Вы не можете голосовать в опросах
Вы не можете прикреплять файлы к сообщениям
Вы не можете скачивать файлы