Любовники из снов / Dream Lovers / Meng zhong ren (Тони Ау Тин Пин / Tony Au Ting Ping) [1986, Гонконг, мелодрама, мистика, DVDRip] VO (Виктор Береговых)

Ответить на тему
 
Автор Сообщение

user ®

Стаж: 11 лет

Сообщений: 15151

Пост Пост: #1 от 26-Фев-2014 23:10

[Цитировать]

Любовники из снов / Dream Lovers / Meng zhong ren
Страна: Гонконг
Жанр: мелодрама, мистика
Год выпуска: 1986
Продолжительность: 01:32:21
Перевод: Одноголосый закадровый (Виктор Береговых)
Cубтитры: нет
Режиссер: Тони Ау Тин Пин / Tony Au Ting Ping
В ролях: Чоу Юн-Фат, Бриджит Лин, Элейн Кам, Кван Шань, Лам Чун
Описание: Молодой парень Сун Юй и его девушка А Лэй переезжают из Нью-Йорка в Гонконг.Сун Юй - дирижер и его концерты всегда востребованы.Иногда его посещают видения,в которых он видит древнюю статую,похожую на него и танцующую девушку, которая медленно раздевается перед ним.Бабушка А Лэй объясняет Сун Юю,что в прошлой жизни он жил во времена династии Цин.Очень скоро Сун Юй встречает девушку из своих снов и видений.Ей тоже снится их прошлая жизнь.Между молодыми людьми возникают чувства...(В.Береговых)
Сэмпл: http://www.sendspace.com/file/934cn8
Качество видео: DVDRip
Формат видео: AVI
Видео: XviD, 720x400 (16:9), 29.970 fps, 1920 kbps avg, 0.222 bit/pixel
Аудио: AC3, 48.0 KHz, 192 Kbps, 2 channels

MediaInfo

General
Complete name : C:\Любовники из снов\Любовники из снов.avi
Format : AVI
Format/Info : Audio Video Interleave
File size : 1.37 GiB
Duration : 1h 32mn
Overall bit rate : 2 120 Kbps
Writing application : VirtualDubMod 1.5.4.1 (build 2178/release)
Writing library : VirtualDubMod build 2178/release
Video
ID : 0
Format : MPEG-4 Visual
Format profile : Simple@L3
Format settings, BVOP : Yes
Format settings, QPel : No
Format settings, GMC : No warppoints
Format settings, Matrix : Custom
Codec ID : XVID
Codec ID/Hint : XviD
Duration : 1h 32mn
Bit rate : 1 920 Kbps
Width : 720 pixels
Height : 400 pixels
Display aspect ratio : 16:9
Frame rate : 29.970 fps
Resolution : 24 bits
Colorimetry : 4:2:0
Scan type : Progressive
Bits/(Pixel*Frame) : 0.222
Stream size : 1.24 GiB (91%)
Writing library : XviD 1.0.1 (UTC 2004-06-05)
Audio
ID : 1
Format : AC-3
Format/Info : Audio Coding 3
Codec ID : 2000
Duration : 1h 32mn
Bit rate mode : Constant
Bit rate : 192 Kbps
Channel(s) : 2 channels
Channel positions : L R
Sampling rate : 48.0 KHz
Stream size : 127 MiB (9%)
Alignment : Split accross interleaves
Interleave, duration : 96 ms (2.88 video frames)
Interleave, preload duration : 96 ms
Language : Russian

Скриншот c названием фильма

Скриншоты

Скачать

Скачать торрент! Любовники из снов / Dream Lovers / Meng zhong ren (Тони Ау Тин Пин / Tony Au Ting Ping) [1986, Гонконг, мелодрама, мистика, DVDRip] VO (Виктор Береговых)

Как скачивать? · Что такое торрент? · Рейтинг и ограничения

Сайт не распространяет и не хранит электронные версии произведений, а лишь предоставляет доступ к создаваемому пользователями каталогу ссылок на торрент-файлы, которые содержат только списки хеш-сумм

[Профиль] [ЛС]
Показать сообщения:    
Ответить на тему

Текущее время: Сегодня 10:23

Часовой пояс: GMT + 4



Вы не можете начинать темы
Вы не можете отвечать на сообщения
Вы не можете редактировать свои сообщения
Вы не можете удалять свои сообщения
Вы не можете голосовать в опросах
Вы не можете прикреплять файлы к сообщениям
Вы не можете скачивать файлы