Ангар 18 / Hangar 18 (Джеймс Л. Конуэй / James L. Conway) [1980, США, фантастика, боевик, триллер, BDRemux 1080p] Dub (Советский дубляж) + DVO (НТВ+) + AVO (Сербин) + Original Eng

Ответить на тему
 
Автор Сообщение

user ®

Стаж: 7 лет 7 месяцев

Сообщений: 20008

Пост Пост: #1 от 26-Фев-2014 23:10

[Цитировать]

Ангар 18 / Hangar 18
Страна: США
Жанр: фантастика, боевик, триллер
Год выпуска: 1980
Продолжительность: 01:37:30
Перевод 1: Профессиональный (дублированный) Советский дубляж
Перевод 2: Профессиональный (двухголосый закадровый) (НТВ+)
Перевод 3: Авторский (одноголосый закадровый) Юрий Сербин
Cубтитры: нет
Оригинальная аудиодорожка: английский
Режиссер: Джеймс Л. Конуэй / James L. Conway
В ролях: Гари Коллинз, Роберт Вон, Джеймс Хэмптон, Филип Эбботт, Джозеф Кампанелла, Памела Беллвуд, Том Хэллик, Стивен Китс, Уильям Шэллерт, Дэррен МакГэвин
Описание: Во время запуска спутника с космического челнока NASA происходит катастрофа. Спутник сталкивается с НЛО. Неопознанный объект совершает аварийную посадку на Земле и попадает в руки спецслужб правительства.
Астронавты, ставшие свидетелями посадки НЛО, вернувшись на Землю, пытаются узнать правду о загадочном объекте, встреченном на орбите. Спецслужбы готовы пойти на любые действия, чтобы ни один из людей не узнал о тайне Ангара 18 - места, где спрятан инопланетный корабль.

Доп. информация: Сохранены оригинальные чаптеры как на Blu-ray.
Сэмпл: http://sendfile.su/944657
Тип релиза: BDRemux 1080p
Контейнер: MKV
Видео: AVC 1920 x 1080 (NTSC 16:9) 23,976 fps, 26983 kbps
Аудио 1: Russian 48 kHz, AC3 Dolby Digital , 2/0 (L,R) ch, ~192 kbps (Советский Дубляж)
Аудио 2: Russian 48 kHz, AC3 Dolby Digital , 2/0 (L,R) ch, ~192 kbps (двухголосый закадровый НТВ+)
Аудио 3: Russian 48 kHz, AC3 Dolby Digital , 2/0 (L,R) ch, ~192 kbps (Авторский одноголосый закадровый, Ю. Сербин)
Аудио 4: English 48 kHz, DTS-HD MA, 1/0 ch, ~869 kbps (DTS Core: 1.0 / 48 kHz / 768 kbps / 16-bit)
Аудио 5: English 48 kHz, AC3 Dolby Digital , 2/0 (L,R) ch, ~192 kbps
File: D:\Hangar\Angar.18.1980.D.BDR.1080p.mkv
Duration: 01:37:30 (5850.02)
Track #1: video
lang: Unknown (1)
codc: V_MPEG4/ISO/AVC -> H264/AVC (22)
reso: 1920x1080 (1920x1080) -> 16:9
fram: 23.976 fps
rate: 26983 kbps (26982.5)
dura: 01:37:30 (5849.76)
size: 18.38 GB (19730182358)
Track #2: audio (DUB)
lang: rus -> Russian (15)
codc: A_AC3 -> AC3 (2)
chan: 2 -> Stereo
samp: 48000 Hz
rate: 192 kbps (192.04)
dura: 01:37:30 (5849.95)
size: 133.92 MB (140428666)
Track #3: audio (DVO NTV+)
lang: rus -> Russian (15)
codc: A_AC3 -> AC3 (2)
chan: 2 -> Stereo
samp: 48000 Hz
rate: 192 kbps (192.04)
dura: 01:37:27 (5846.69)
size: 133.85 MB (140351087)
Track #4: audio (AVO Serbin)
lang: rus -> Russian (15)
codc: A_AC3 -> AC3 (2)
chan: 2 -> Stereo
samp: 48000 Hz
rate: 192 kbps (192.04)
dura: 01:37:30 (5849.95)
size: 133.92 MB (140428667)
Track #5: audio
lang: Unknown (1)
codc: A_DTS -> DTS (13)
chan: 1 -> Mono
samp: 48000 Hz
rate: 869 kbps (869.42)
dura: 01:37:30 (5849.94)
size: 606.30 MB (635754806)
Track #6: audio
lang: Unknown (1)
codc: A_AC3 -> AC3 (2)
chan: 2 -> Stereo
samp: 48000 Hz
rate: 192 kbps (192.04)
dura: 01:37:30 (5849.95)
size: 133.92 MB (140428671)
Sizes: (check sanity)
disk: 19.49 GB (20930391587)
trac: 3.49 GB (3747705071) [based on track size]
bitr: 19.49 GB (20927613632) [based on bitrate]
tdif: 16.00 GB (17182686516) 82.09%
bdif: 2.65 MB (2777954) 0.01%

MediaInfo

Общее
Уникальный идентификатор : 217608460029607086721944264061683518138 (0xA3B5DD6C340B6DC59F219F2E84344ABA)
Полное имя : D:\Hangar 18\Angar.18.1980.D.BDR.1080p.mkv
Формат : Matroska
Версия формата : Version 4 / Version 2
Размер файла : 19,5 Гбайт
Продолжительность : 1 ч. 37 м.
Режим общего битрейта : Переменный
Общий поток : 28,6 Мбит/сек
Дата кодирования : UTC 2014-02-14 20:52:12
Программа кодирования : mkvmerge v6.7.0 ('Back to the Ground') 64bit built on Jan 8 2014 15:10:52
Библиотека кодирования : libebml v1.3.0 + libmatroska v1.4.1
Видео
Идентификатор : 1
Формат : AVC
Формат/Информация : Advanced Video Codec
Профиль формата : High@L4.1
Параметр CABAC формата : Да
Параметр ReFrames формата : 4 кадра
Параметр GOP формата : M=3, N=24
Идентификатор кодека : V_MPEG4/ISO/AVC
Продолжительность : 1 ч. 37 м.
Вид битрейта : Переменный
Максимальный битрейт : 33,5 Мбит/сек
Ширина : 1920 пикселей
Высота : 1080 пикселей
Соотношение сторон : 16:9
Режим частоты кадров : Постоянный
Частота кадров : 23,976 кадра/сек
Стандарт вещания : NTSC
Цветовое пространство : YUV
Субдискретизация насыщенности : 4:2:0
Битовая глубина : 8 бит
Тип развёртки : Прогрессивная
Язык : English
Default : Да
Forced : Нет
Основные цвета : BT.709
Характеристики трансфера : BT.709
Коэффициенты матрицы : BT.709
Аудио #1
Идентификатор : 2
Формат : AC-3
Формат/Информация : Audio Coding 3
Расширение режима : CM (complete main)
Параметр Endianness формата : Big
Идентификатор кодека : A_AC3
Продолжительность : 1 ч. 37 м.
Вид битрейта : Постоянный
Битрейт : 192 Кбит/сек
Каналы : 2 канала
Расположение каналов : Front: L R
Частота : 48,0 КГц
Битовая глубина : 16 бит
Метод сжатия : С потерями
Размер потока : 134 Мбайт (1%)
Заголовок : DUB
Язык : Russian
Default : Да
Forced : Нет
Аудио #2
Идентификатор : 3
Формат : AC-3
Формат/Информация : Audio Coding 3
Расширение режима : CM (complete main)
Параметр Endianness формата : Big
Идентификатор кодека : A_AC3
Продолжительность : 1 ч. 37 м.
Вид битрейта : Постоянный
Битрейт : 192 Кбит/сек
Каналы : 2 канала
Расположение каналов : Front: L R
Частота : 48,0 КГц
Битовая глубина : 16 бит
Метод сжатия : С потерями
Размер потока : 134 Мбайт (1%)
Заголовок : DVO NTV+
Язык : Russian
Default : Нет
Forced : Нет
Аудио #3
Идентификатор : 4
Формат : AC-3
Формат/Информация : Audio Coding 3
Расширение режима : CM (complete main)
Параметр Endianness формата : Big
Идентификатор кодека : A_AC3
Продолжительность : 1 ч. 37 м.
Вид битрейта : Постоянный
Битрейт : 192 Кбит/сек
Каналы : 2 канала
Расположение каналов : Front: L R
Частота : 48,0 КГц
Битовая глубина : 16 бит
Метод сжатия : С потерями
Размер потока : 134 Мбайт (1%)
Заголовок : AVO Serbin
Язык : Russian
Default : Нет
Forced : Нет
Аудио #4
Идентификатор : 5
Формат : DTS
Формат/Информация : Digital Theater Systems
Профиль формата : MA / Core
Режим : 16
Параметр Endianness формата : Big
Идентификатор кодека : A_DTS
Продолжительность : 1 ч. 37 м.
Вид битрейта : Переменный
Битрейт : Неизвестно / 768 Кбит/сек
Каналы : 1 канал
Расположение каналов : Front: C
Частота : 48,0 КГц
Битовая глубина : 16 бит
Метод сжатия : Без потерь / Lossy
Язык : English
Default : Нет
Forced : Нет
Аудио #5
Идентификатор : 6
Формат : AC-3
Формат/Информация : Audio Coding 3
Расширение режима : CM (complete main)
Параметр Endianness формата : Big
Идентификатор кодека : A_AC3
Продолжительность : 1 ч. 37 м.
Вид битрейта : Постоянный
Битрейт : 192 Кбит/сек
Каналы : 2 канала
Расположение каналов : Front: L R
Частота : 48,0 КГц
Битовая глубина : 16 бит
Метод сжатия : С потерями
Размер потока : 134 Мбайт (1%)
Язык : English
Default : Нет
Forced : Нет
Меню
00:00:00.000 : en:00:00:00.000
00:09:18.475 : en:00:09:18.475
00:22:47.199 : en:00:22:47.199
00:36:22.555 : en:00:36:22.555
00:45:44.408 : en:00:45:44.408
01:00:58.780 : en:01:00:58.780
01:10:01.406 : en:01:10:01.406
01:17:40.739 : en:01:17:40.739

Скриншоты

Скачать

Скачать торрент!

Как скачивать? · Что такое торрент? · Рейтинг и ограничения

Сайт не распространяет и не хранит электронные версии произведений, а лишь предоставляет доступ к создаваемому пользователями каталогу ссылок на торрент-файлы, которые содержат только списки хеш-сумм

[Профиль] [ЛС]
Показать сообщения:    
Ответить на тему

Текущее время: Сегодня 06:27

Часовой пояс: GMT + 4



Вы не можете начинать темы
Вы не можете отвечать на сообщения
Вы не можете редактировать свои сообщения
Вы не можете удалять свои сообщения
Вы не можете голосовать в опросах
Вы не можете прикреплять файлы к сообщениям
Вы не можете скачивать файлы