Даю год / I Give It a Year (Дэн Мазер / Dan Mazer) [2013, Великобритания, мелодрама, комедия, BDRip 720p] Dub + Original Eng

Ответить на тему
 
Автор Сообщение

user ®

Стаж: 7 лет 7 месяцев

Сообщений: 20008

Пост Пост: #1 от 26-Фев-2014 23:10

[Цитировать]

Даю год / I Give It a Year- Страна: Великобритания
Студия: StudioCanal, Translux, Working Title Film
Жанр: мелодрама, комедия
Год выпуска: 2013
Продолжительность: 01:37:26-Перевод: Профессиональный (дублированный)
Cубтитры: нет
Оригинальная аудиодорожка: английский-Режиссер: Дэн Мазер / Dan Mazer
В ролях: Роуз Бирн, Рейф Сполл, Анна Фэрис, Саймон Бейкер, Александр Макквин, Стивен Мерчант, Джейн Эшер, Теренс Харви, Минни Драйвер, Джейсон Флеминг-Описание: Фильм в комедийном ключе поведает о всевозможных проблемах и трудностях, с которыми приходится сталкиваться молодоженам в первый год их семейной жизни.- -Тип релиза: BDRip 720p
Контейнер: MKV-Видео: AVC; 1280x544; 2,35:1; 23,976 fps; 5259 kbps
Аудио 1: Russian (DTS, 6 ch, 1510 kbps, 48,0 КГц)
Аудио 2: English (DTS, 6 ch, 1510 kbps, 48,0 КГц)

MediaInfo

Общее
Уникальный идентификатор : 181510152542107196237160837754151160107 (0x888D9573DBD5B956AFA4D87DB7BAC92B)
Полное имя : F:Daju god (2013) BDRip.720.by.Modepido.mkv
Формат : Matroska
Размер файла : 5,64 Гбайт
Продолжительность : 1 ч. 37 м.
Общий поток : 8281 Кбит/сек
Дата кодирования : UTC 2013-05-08 20:06:25
Программа кодирования : mkvmerge v5.8.0 ('No Sleep / Pillow') built on Sep 2 2012 15:37:04
Библиотека кодирования : libebml v1.2.3 + libmatroska v1.3.0
Видео
Идентификатор : 1
Формат : AVC
Формат/Информация : Advanced Video Codec
Профиль формата : Main@L4.1
Параметр CABAC формата : Да
Параметр ReFrames формата : 5 кадров
Идентификатор кодека : V_MPEG4/ISO/AVC
Продолжительность : 1 ч. 37 м.
Битрейт : 5259 Кбит/сек
Ширина : 1280 пикс.
Высота : 544 пикс.
Соотношение сторон : 2,35:1
Частота кадров : 23,976 кадр/сек
Цветовое пространство : YUV
Подвыборка цветности : 4:2:0
Битовая глубина : 8 бит
Тип развёртки : Прогрессивная
Бит/(Пиксели*Кадры) : 0.315
Размер потока : 3,47 Гбайт (62%)
Библиотека кодирования : x264 core 130 r2273 b3065e6
Настройки программы : cabac=1 / ref=5 / deblock=1:-1:-1 / analyse=0x1:0x111 / me=umh / subme=9 / psy=1 / psy_rd=1.00:0.15 / mixed_ref=1 / me_range=24 / chroma_me=1 / trellis=1 / 8x8dct=0 / cqm=0 / deadzone=21,11 / fast_pskip=1 / chroma_qp_offset=-3 / threads=6 / lookahead_threads=1 / sliced_threads=0 / nr=0 / decimate=1 / interlaced=0 / bluray_compat=0 / constrained_intra=0 / bframes=8 / b_pyramid=2 / b_adapt=2 / b_bias=0 / direct=3 / weightb=1 / open_gop=0 / weightp=2 / keyint=240 / keyint_min=23 / scenecut=40 / intra_refresh=0 / rc_lookahead=50 / rc=2pass / mbtree=1 / bitrate=5259 / ratetol=1.0 / qcomp=0.60 / qpmin=0 / qpmax=69 / qpstep=4 / cplxblur=20.0 / qblur=0.5 / vbv_maxrate=50000 / vbv_bufsize=50000 / nal_hrd=none / ip_ratio=1.40 / aq=1:1.00
Язык : English
Аудио #1
Идентификатор : 2
Формат : DTS
Формат/Информация : Digital Theater Systems
Идентификатор кодека : A_DTS
Продолжительность : 1 ч. 37 м.
Вид битрейта : Постоянный
Битрейт : 1510 Кбит/сек
Каналы : 6 каналов
Расположение каналов : Front: L C R, Side: L R, LFE
Частота : 48,0 КГц
Битовая глубина : 24 бит
Метод сжатия : С потерями
Размер потока : 1,03 Гбайт (18%)
Язык : Russian
Аудио #2
Идентификатор : 3
Формат : DTS
Формат/Информация : Digital Theater Systems
Идентификатор кодека : A_DTS
Продолжительность : 1 ч. 37 м.
Вид битрейта : Постоянный
Битрейт : 1510 Кбит/сек
Каналы : 6 каналов
Расположение каналов : Front: L C R, Side: L R, LFE
Частота : 48,0 КГц
Битовая глубина : 24 бит
Метод сжатия : С потерями
Размер потока : 1,03 Гбайт (18%)
Язык : English
Меню
00:00:00.000 : en:00:00:00.000
00:00:33.492 : en:00:00:33.492
00:10:28.169 : en:00:10:28.169
00:23:03.882 : en:00:23:03.882
00:34:08.588 : en:00:34:08.588
00:47:15.541 : en:00:47:15.541
01:00:37.092 : en:01:00:37.092
01:11:31.704 : en:01:11:31.704
01:20:38.250 : en:01:20:38.250

Скриншоты

Скачать

Скачать торрент!

Как скачивать? · Что такое торрент? · Рейтинг и ограничения

Сайт не распространяет и не хранит электронные версии произведений, а лишь предоставляет доступ к создаваемому пользователями каталогу ссылок на торрент-файлы, которые содержат только списки хеш-сумм

[Профиль] [ЛС]
Показать сообщения:    
Ответить на тему

Текущее время: Сегодня 01:51

Часовой пояс: GMT + 4



Вы не можете начинать темы
Вы не можете отвечать на сообщения
Вы не можете редактировать свои сообщения
Вы не можете удалять свои сообщения
Вы не можете голосовать в опросах
Вы не можете прикреплять файлы к сообщениям
Вы не можете скачивать файлы