Xopoший доктop / Тhе Gооd Dоctоr (Лэнс Дэйли / Lance Daly) [2011, США, триллер, драма, BDRip 1080p] MVO (R5) + Original (Eng) + Subs (Rus, Eng)

Ответить на тему
 
Автор Сообщение

user ®

Стаж: 7 лет 7 месяцев

Сообщений: 20008

Пост Пост: #1 от 26-Фев-2014 23:10

[Цитировать]

Хороший доктор / The Good Doctor Страна: США
Студия: Fastnet Films, Viddywell Productions
Жанр: триллер, драма
Год выпуска: 2011
Продолжительность: 01:30:49
Перевод: Профессиональный (многоголосый закадровый) R5
Cубтитры: английские, русские
Оригинальная аудиодорожка: английский
Режиссер: Лэнс Дэйли / Lance Daly
В ролях: Орландо Блум, Райли Кеох, Тараджи П. Хенсон, Роб Морроу, Майкл Пенья, Трой Гэрити, Молли Прайс, Уэйд Уильямс, Сорел Кэрредин, Гэри Сервантес
Описание:
Молодой врач стремится произвести впечатление на свое начальство и коллег. Когда в клинику, где он работает, попадает 18-летняя пациентка с инфекцией почек, доктор вмешивается в ее лечение, чтобы надолго оставить девушку в больнице.
- ||-Тип релиза: BDRip 1080p (рип от HDChina)
Контейнер: MKV
Видео: AVC (x264), 1920x1040 (1,85:1) at 23,976 fps, 14900 Кbps, 0.311 bpp
Аудио 1: AC3; 384 Kbps; CBR; 6 ch; 48 khz | P, MVO - R5 |
Аудио 2: DTS; 1536 Kbps; CBR; 6 ch; 48 khz; 16 bit | Английский |
Формат субтитров: softsub (SRT)

Скриншоты || x264 Info || MediaInfo || Notes

Notes:

  • Аудио дорожка №1 и RU субтитры взяты с этой [url=http://***/forum/viewtopic.php?t=4419945]раздачи[/url], thx: modepido
  • Поименованные главы взяты с The.Good.Doctor.Toedliche.Behandlung.GERMAN.2011.DL.PAL.DVDR-OldsMan

MediaInfo

Общее
Уникальный идентификатор                 : 172501579909992587905942196551439076650 (0x81C69887AD78B8AF8E4843CA2683CD2A)
Полное имя                               : Хороший доктор.2011.P.1080p.BluRay.x264-HDChina.mkv
Формат                                   : Matroska
Версия формата                           : Version 4 / Version 2
Размер файла                             : 10,9 Гбайт
Продолжительность                        : 1 ч. 30 м.
Общий поток                              : 17,1 Мбит/сек
Название фильма                          : profile.php?mode=viewprofile&u=22488948
Дата кодирования                         : UTC 2013-04-25 02:03:29
Программа кодирования                    : mkvmerge v6.1.0 ('Old Devil') built on Mar  2 2013 14:32:37
Библиотека кодирования                   : libebml v1.3.0 + libmatroska v1.4.0
Видео
Идентификатор                            : 1
Формат                                   : AVC
Формат/Информация                        : Advanced Video Codec
Профиль формата                          : High@L4.1
Параметр CABAC формата                   : Да
Параметр ReFrames формата                : 4 кадра
Идентификатор кодека                     : V_MPEG4/ISO/AVC
Продолжительность                        : 1 ч. 30 м.
Битрейт                                  : 14,9 Мбит/сек
Ширина                                   : 1920 пикселей
Высота                                   : 1040 пикселей
Соотношение сторон                       : 1,85:1
Режим частоты кадров                     : Постоянный
Частота кадров                           : 23,976 кадра/сек
Цветовое пространство                    : YUV
Субдискретизация насыщенности            : 4:2:0
Битовая глубина                          : 8 бит
Тип развёртки                            : Прогрессивная
Бит/(Пиксели*Кадры)                      : 0.311
Размер потока                            : 9,44 Гбайт (87%)
Библиотека кодирования                   : x264 core 125 r2200 999b753
Настройки программы                      : cabac=1 / ref=4 / deblock=1:-1:-1 / analyse=0x3:0x133 / me=umh / subme=10 / psy=1 / psy_rd=1.00:0.10 / mixed_ref=1 / me_range=32 / chroma_me=1 / trellis=2 / 8x8dct=1 / cqm=0 / deadzone=21,11 / fast_pskip=0 / chroma_qp_offset=-3 / threads=24 / lookahead_threads=4 / sliced_threads=0 / nr=0 / decimate=0 / interlaced=0 / bluray_compat=0 / constrained_intra=0 / bframes=8 / b_pyramid=2 / b_adapt=2 / b_bias=0 / direct=3 / weightb=1 / open_gop=0 / weightp=2 / keyint=360 / keyint_min=24 / scenecut=40 / intra_refresh=0 / rc_lookahead=250 / rc=crf / mbtree=1 / crf=18.0 / qcomp=0.60 / qpmin=0 / qpmax=69 / qpstep=4 / ip_ratio=1.40 / aq=2:1.00
Язык                                     : English
Default                                  : Да
Forced                                   : Нет
Аудио #1
Идентификатор                            : 2
Формат                                   : AC-3
Формат/Информация                        : Audio Coding 3
Расширение режима                        : CM (complete main)
Параметр Endianness формата              : Big
Идентификатор кодека                     : A_AC3
Продолжительность                        : 1 ч. 30 м.
Вид битрейта                             : Постоянный
Битрейт                                  : 384 Кбит/сек
Каналы                                   : 6 каналов
Расположение каналов                     : Front: L C R, Side: L R, LFE
Частота                                  : 48,0 КГц
Битовая глубина                          : 16 бит
Метод сжатия                             : С потерями
Размер потока                            : 249 Мбайт (2%)
Заголовок                                : P, MVO [R5]
Язык                                     : Russian
Default                                  : Да
Forced                                   : Нет
Аудио #2
Идентификатор                            : 3
Формат                                   : DTS
Формат/Информация                        : Digital Theater Systems
Режим                                    : 16
Параметр Endianness формата              : Big
Идентификатор кодека                     : A_DTS
Продолжительность                        : 1 ч. 30 м.
Вид битрейта                             : Постоянный
Битрейт                                  : 1509 Кбит/сек
Каналы                                   : 6 каналов
Расположение каналов                     : Front: L C R, Side: L R, LFE
Частота                                  : 48,0 КГц
Битовая глубина                          : 16 бит
Метод сжатия                             : С потерями
Размер потока                            : 980 Мбайт (9%)
Язык                                     : English
Default                                  : Нет
Forced                                   : Нет
Текст #1
Идентификатор                            : 4
Формат                                   : UTF-8
Идентификатор кодека                     : S_TEXT/UTF8
Идентификатор кодека/Информация          : UTF-8 Plain Text
Язык                                     : English
Default                                  : Нет
Forced                                   : Нет
Текст #2
Идентификатор                            : 5
Формат                                   : UTF-8
Идентификатор кодека                     : S_TEXT/UTF8
Идентификатор кодека/Информация          : UTF-8 Plain Text
Заголовок                                : R5
Язык                                     : Russian
Default                                  : Нет
Forced                                   : Нет
Меню
00:00:00.000                             : :1:  COMMUNICATION
00:06:06.000                             : :2:  LONELY
00:09:39.000                             : :3:  DIANE
00:15:34.000                             : :4:  GOOD PATIENT
00:20:10.250                             : :5:  THE DINNER
00:26:55.000                             : :6:  LOST
00:32:28.000                             : :7:  MANIPULATION
00:39:10.000                             : :8:  MARTINS GAME
00:43:44.000                             : :9:  DIFFICULT CASES
00:49:34.000                             : :10:  WRONG DIAGNOSIS
00:53:29.000                             : :11:  FAREWELL
01:00:08.000                             : :12:  THE FIRST TIME
01:05:03.000                             : :13:  EXTORTION
01:11:47.000                             : :14:  DANGEROUS DRUG
01:17:27.000                             : :15:  THE DECISION
01:27:34.000                             : :16:  CREDITS

x264 Info

x264 [info]: frame I:632 Avg QP:16.43 size:214767
x264 [info]: frame P:26156 Avg QP:19.55 size:100951
x264 [info]: frame B:103875 Avg QP:21.25 size: 73114
x264 [info]: consecutive B-frames: 1.1% 2.1% 3.7% 18.7% 18.3% 39.3% 9.2% 4.4% 3.2%
Скачать

Скачать торрент!

Как скачивать? · Что такое торрент? · Рейтинг и ограничения

Сайт не распространяет и не хранит электронные версии произведений, а лишь предоставляет доступ к создаваемому пользователями каталогу ссылок на торрент-файлы, которые содержат только списки хеш-сумм

[Профиль] [ЛС]
Показать сообщения:    
Ответить на тему

Текущее время: Сегодня 19:35

Часовой пояс: GMT + 4



Вы не можете начинать темы
Вы не можете отвечать на сообщения
Вы не можете редактировать свои сообщения
Вы не можете удалять свои сообщения
Вы не можете голосовать в опросах
Вы не можете прикреплять файлы к сообщениям
Вы не можете скачивать файлы