Мимино (Георгий Данелия) [1977, комедия, DVDRip-AVC]

Ответить на тему
 
Автор Сообщение

user ®

Стаж: 7 лет 7 месяцев

Сообщений: 20008

Пост Пост: #1 от 26-Фев-2014 23:10

[Цитировать]

Мимино
Жанр: комедия
Год выпуска: 1977
Продолжительность: 01:31:18
Режиссёр: Георгий Данелия
В ролях: Вахтанг (Буба) Кикабидзе, Фрунзе (Фрунзик, Мгер) Мкртчян, Борислав Брондуков, Павел Винник, Арчил Гомиашвили, Микаэла Дроздовская, Марина Дюжева, Петр Любешкин, Николай Деберо, Алексей Алексеев, Савелий Крамаров, Леонид Куравлёв, Евгений Леонов, Николай Граббе, Виктор Шульгин, Абессалом Лория, Елена Проклова, Ипполит Хвичиа, Владимир Басов, Валентина Титова, Котэ Даушвили, Руслан Микаберидзе, Закро Сахвадзе, Русико Морчеладзе, Василий Чхаидзе, Александр Новиков, Георгий Данелия, Эдуард Изотов, Артём Карапетян (голос за кадром)
Описание: Валико Мизандари (его позывные и прозвище - Мимино, что по-грузински значит "ястреб") - пилот "малой" авиации, обслуживающей горные деревушки Верхней Тушетии (Грузия). Свой вертолет "Ми-2" он называет "пепела" - бабочка. (Кстати, помните пепелац из "Кин-дза-дзы!"?..) Как-то раз Мимино встречает в аэропорту своего бывшего однокурсника, который управляет нынче сверхзвуковым авиалайнером "Ту-144" и летает за границу. В его экипажа есть стюардесса Лариса Ивановна, сразу покорившая сердце Мимино. Желая достичь успехов в большой авиации, Валико Мизандари отправляется в Москву...
Качество видео: DVDRip-AVC
Формат видео: MKV
Видео: 718x576@766x576, (4:3), 25.000 fps, AVC, ~2102 Kbps
Аудио 1: 48 kHz, AC3, 1 ch, 192 Kbps
Аудио 2: 48 kHz, AC3, 6 ch, 448 kbps - отдельно

MediaInfo

raw [info]: 718x576p 16:15 @ 25/1 fps (cfr)
x264 [info]: using SAR=16/15
x264 [info]: using cpu capabilities: MMX2 SSE2Fast SSSE3 SSE4.2 AVX
x264 [info]: profile High, level 4.1
x264 [info]: frame I:851 Avg QP:17.79 size: 70205
x264 [info]: frame P:35748 Avg QP:20.30 size: 25742
x264 [info]: frame B:100366 Avg QP:22.77 size: 4580-Общее
Уникальный идентификатор : 193130626155938756347743115046732640070 (0x914B9B0934533583A0965590DACB2F46)
Полное имя : F:\DVD\Мимино_1977-DVDRip-AVC\Мимино_1977-DVDRip-AVC.mkv
Формат : Matroska
Версия формата : Version 2
Размер файла : 1,46 Гбайт
Продолжительность : 1 ч. 31 м.
Общий поток : 2296 Кбит/сек
Дата кодирования : UTC 2014-02-26 17:35:13
Программа кодирования : mkvmerge v5.1.0 ('And so it goes') built on Nov 28 2011 23:58:28
Библиотека кодирования : libebml v1.2.3 + libmatroska v1.3.0
Видео
Идентификатор : 1
Формат : AVC
Формат/Информация : Advanced Video Codec
Профиль формата : High@L4.1
Параметр CABAC формата : Да
Параметр ReFrames формата : 14 кадров
Идентификатор кодека : V_MPEG4/ISO/AVC
Продолжительность : 1 ч. 31 м.
Битрейт : 2102 Кбит/сек
Ширина : 718 пикселей
Высота : 576 пикселей
Соотношение сторон : 4:3
Режим частоты кадров : Постоянный
Частота кадров : 25,000 кадров/сек
Цветовое пространство : YUV
Субдискретизация насыщенности : 4:2:0
Битовая глубина : 8 бит
Тип развёртки : Прогрессивная
Бит/(Пиксели*Кадры) : 0.203
Размер потока : 1,31 Гбайт (90%)
Библиотека кодирования : x264 core 142 r2389 956c8d8
Настройки программы : cabac=1 / ref=14 / deblock=1:-2:-1 / analyse=0x3:0x133 / me=umh / subme=11 / psy=1 / psy_rd=0.90:0.15 / mixed_ref=1 / me_range=24 / chroma_me=1 / trellis=2 / 8x8dct=1 / cqm=0 / deadzone=21,11 / fast_pskip=0 / chroma_qp_offset=-3 / threads=12 / lookahead_threads=2 / sliced_threads=0 / nr=0 / decimate=0 / interlaced=0 / bluray_compat=0 / constrained_intra=0 / bframes=7 / b_pyramid=2 / b_adapt=2 / b_bias=0 / direct=3 / weightb=1 / open_gop=0 / weightp=2 / keyint=250 / keyint_min=25 / scenecut=40 / intra_refresh=0 / rc_lookahead=60 / rc=2pass / mbtree=1 / bitrate=2102 / ratetol=1.0 / qcomp=0.65 / qpmin=0 / qpmax=39 / qpstep=4 / cplxblur=20.0 / qblur=0.5 / ip_ratio=1.30 / aq=1:1.00
Язык : English
Default : Да
Forced : Нет
Основные цвета : BT.601 PAL
Характеристики трансфера : BT.470 System B, BT.470 System G
Коэффициенты матрицы : BT.601
Аудио
Идентификатор : 2
Формат : AC-3
Формат/Информация : Audio Coding 3
Расширение режима : CM (complete main)
Параметр Endianness формата : Big
Идентификатор кодека : A_AC3
Продолжительность : 1 ч. 31 м.
Вид битрейта : Постоянный
Битрейт : 192 Кбит/сек
Каналы : 1 канал
Расположение каналов : Front: C
Частота : 48,0 КГц
Битовая глубина : 16 бит
Метод сжатия : С потерями
Задержка видео : 1 с. 592 мс.
Размер потока : 125 Мбайт (8%)
Язык : Russian
Default : Да
Forced : Нет
Скачать

Скачать торрент!

Как скачивать? · Что такое торрент? · Рейтинг и ограничения

Сайт не распространяет и не хранит электронные версии произведений, а лишь предоставляет доступ к создаваемому пользователями каталогу ссылок на торрент-файлы, которые содержат только списки хеш-сумм

[Профиль] [ЛС]
Показать сообщения:    
Ответить на тему

Текущее время: Сегодня 22:24

Часовой пояс: GMT + 4



Вы не можете начинать темы
Вы не можете отвечать на сообщения
Вы не можете редактировать свои сообщения
Вы не можете удалять свои сообщения
Вы не можете голосовать в опросах
Вы не можете прикреплять файлы к сообщениям
Вы не можете скачивать файлы